8资源分享论坛 - 资源分享,资源共享|www.8ziyuan.com

标题: [大型历史文献片[楚国八百年][全8集/国语中字/央视周志强] [打印本页]

作者: 唐章小小    时间: 2018-8-5 00:36
标题: [大型历史文献片[楚国八百年][全8集/国语中字/央视周志强]
--- ++++ ---- ++++ ---- ++++ ----- ++++ ----- ++++ -----
※※※※※※※ 影片标题 ※※※※※※※
---- ++++ ---- ++++ ---- ++++ ----- ++++ ----- ++++ -----
[楚国八百年][国语中字][我的祖先是楚人/楚始都是家乡丹阳/淅川丹江水库淹没区/不学历史真可耻]
======++++++++========++++++++========++++++++========++++++++=====
The Rise & Fall of the State of Chu EP01-EP08 2014 CCTV-1 1080i HDTV H264 DD5.1-NGB
======++++++++========++++++++========++++++++========++++++++=====
[大型历史文献片[楚国八百年][全8集/国语中字/央视周志强]
======++++++++========++++++++========++++++++========++++++++=====
---- ++++ ---- ++++ ---- ++++ ----- ++++ ----- ++++ -----
※※※※※※※ 影片封面 ※※※※※※※
---- ++++ ---- ++++ ---- ++++ ----- ++++ ----- ++++ -----
51d929f0fff4b7fa8c1ae85199fa7174.jpg
---- ++++ ---- ++++ ---- ++++ ----- ++++ ----- ++++ -----
[※※※※※※※ 影片信息 ※※※※※※※
---- ++++ ---- ++++ ---- ++++ ----- ++++ ----- ++++ -----
◎信息简介:
◎英文片名:The Rise & Fall of the State of Chu
◎中文片名:楚国八百年 / 楚国800年 / The Rise & Fall of the State of Chu
◎年  代:2014
◎地  区:中国大陆
◎剧集类型:纪录片
◎语  言:汉语普通话
◎上映日期:2014-02-24(中国大陆)
◎单集片长:47m:57
◎集  数:全8集
◎视频尺寸:1920x1080
◎文件大小:平均每集 2.73GiB
◎总 导 演:张晓敏
◎出 品 人  胡占凡/尹汉宁  
◎演  员:沈  凯/赵艳舞/粟小原/白东风
           贺  帅/顾宝丰/张敏敏/潘海臣
           张书魁/笋锦良/岳冬峰/沈雪
◎官方网站:jishi.cntv.cn/special/djsb/cgbbn/
◎豆瓣评分:8.3/10/2515
◎豆瓣链接:https://movie.douban.com/subject/20388261/
---- ++++ ---- ++++ ---- ++++ ----- ++++ ----- ++++ -----
※※※※※※※ 影片剧情 ※※※※※※※
---- ++++ ---- ++++ ---- ++++ ----- ++++ ----- ++++ -----
◎剧情简介:
     《楚国八百年》是由中央电视台和湖北广播电视台联合出品,由央视纪录频道和湖北卫视联合摄制的一部大型历史文化纪录片。
       经过历时近两年的精心策划、艰苦摄制和细致打磨,这部纪录片将第一次完整地讲述楚国800年悠久而宏大的历史,以全新的视角解读令人叹为观止的楚文明。
      该片将于2月24日晚间起,在央视综合频道(CCTV-1)、央视纪录频道(CCTV-9)、湖北卫视同步播出。
      大型高清纪录片《楚国八百年》第一次完整、系统地讲述楚国800年波澜壮阔的历史,以其奇谲瑰丽的文物解读楚国辉煌灿烂的文明,以其盛衰荣枯的历程揭示历史背后值得深思的规律,以史为鉴,启发观众从历史的玄机中找到发展的智慧。
     楚国一度是世界第一大国,中国历史上第一段长城、第一个县、第一支毛笔、甚至是第一把铁剑,都出现在楚国大地。它不仅是华夏大地上文化最灿烂辉煌的诸侯国,也曾经是全世界文明的最高峰,甚至一度领先北方中原文明。
     五千年的中华文明传承,从大的区域范围划分,就是北方的黄河文明和南方的长江文明。如果说黄河文明以中原文化为代表,那么,长江文明中的吴越文化、楚文化和巴蜀文化应为代表,其中,又尤以楚文化为最高成就者。楚国自立国到公元前223年灭国,历经四十几代君王。
全盛时期的楚国北到黄河,东达东海,西至巴蜀,南抵岭南,在吸收、融合以及创新之中形成的楚文化,对我国长江流域以及东南和西南地区影响深远,可以说整个南中国区域文化至今仍透射出楚文化的绚丽光芒。
---- ++++ ---- ++++ ---- ++++ ----- ++++ ----- ++++ -----
※※※※※※※ 影片分集 ※※※※※※※
---- ++++ ---- ++++ ---- ++++ ----- ++++ ----- ++++ -----
◎分集剧情:
第1集 初生
  三千六百多年前,楚人在商朝军队的驱逐下,被迫离开中原,向南迁徙。几百年间,楚人在黑暗中苦苦等待着重回中原怀抱的机会。推翻了商王朝后,他们终于拥有了自己的国家。然而,周昭王率军南下攻楚国。楚人回归中原的满腔热情,被周王朝的傲慢和冷漠浇灭。楚国国君熊渠以封子为王的惊人之举,发出一个石破天惊的信号:楚国要使天下刮目相看了。
第2集 觉醒
  公元前8世纪,周王室日渐衰微,天下动荡不安。混乱的局势让楚武王熊通看到了楚国崛起的希望。控制拥有丰富铜矿资源的铜绿山,成为楚国的首要目标。两次伐随,都以楚军失败告终。年迈的楚武王率领大军踏上第三次伐随的征途。战胜随国,铜绿山纳入了楚国的势力范围。青铜的力量,最终推动楚国成长为一个席卷江汉的强国。
第3集 受挫
  公元前8世纪,南夷与北狄南北夹击,轮番入侵,中原国家危机四伏。齐桓公高扬“尊王攘夷”的大旗,成为天下霸主。楚国国力上扬,分享者影视楚成王雄心勃勃渴望争夺霸权。然而这个已经崛起的国家,只收获了中原诸国的恐惧。楚成王最终死在儿子商臣的剑下,楚国称霸中原的梦想又将由谁来实现?
第4集 称霸
  少年楚庄王在险恶环境中成长,三年不鸣,一鸣惊人,他以高超的政治智慧化解国家危机。志得意满的楚庄王欲代周而取天下,问鼎中原。在德不在鼎,王孙满充满智慧的回答征服楚庄王。明君贤臣,风云际遇,造就楚庄王的雄图霸业,然而当一代雄主逝去,他所创造的盛世也很快光芒散去。
第5集 歧途
  弭兵之盟,带来久违的和平。从晋楚争霸脱身而出,楚国国力迅速增强。弑君篡位的楚灵王,以修建天下最为豪华的宫殿来彰显楚国盛世荣耀。盛世崩塌,只在一瞬。皇族叛乱,楚灵王最终自缢身亡。章华台开启了动乱的潘多拉之盒。至此,楚国的霸业渐行渐远,名存实亡。
第6集 劫难
  三万吴军精锐奇袭楚国,势如破竹攻入郢都。楚国全民皆兵,竭力死战。吴国一举灭楚的计划, 在楚人反抗的呐喊中,灰飞烟灭。楚国在惊涛骇浪中逃过了灭顶之灾,而只知进,不知退的吴国由骤兴到灭亡,如同昙花一现。楚威王的成功让楚国登上了盛世顶峰,然而产生畸变的政治制度如同狂风,能瞬间吹落所有的繁华。
第7集 变革
  国君当街遇刺,骇人听闻。手握利剑,吴起大刀阔斧挑战贵族权威。疾风暴雨般的改革,效果显现。分享者影视,然而,楚悼王病逝,贵族射杀吴起,变法戛然而止。秦国崛起,虎狼时代到来,内忧外患中,屈原开始他的改革事业。历史将会如何决择,楚国最后这一次机会,楚人又会如何把握?
第8集 涅槃
  秦相张仪以六百里土地的承诺,骗取楚怀王与齐国断交。楚怀王勃然大怒,草率出兵。
丹阳之战,楚师大败。大兵压境,楚怀王亲自赴秦议和,却遭囚禁。三年后,楚怀王在咸阳郁郁而终。绝望中,屈原跳进了汨罗江。承载了八百年历史的楚国,在战火中沉埋于地下。古老的楚文化,又将如何延续自己的生命?

※※※※※※※ 影片参数 ※※※※※※※
General
ID                             : 43 (0x2B)
Complete name                  : K:[楚国八百年][全8集.国语中字.央视周志强].EP01-E0P08.2014.CCTV-1.1080i.HDTV.H264.DD5.1-NGB《楚国八百年》第一集:初生.CCTV-1.1080i.HDTV.H264-NGB.ts
Format                         : MPEG-TS
File size                      : 2.72 GiB
Duration                       : 48 min 57 s
Overall bit rate mode          : Variable
Overall bit rate               : 7 963 kb/s

Video
ID                             : 4810 (0x12CA)
Menu ID                        : 301 (0x12D)
Format                         : AVC
Format/Info                    : Advanced Video Codec
Format profile                 : [email protected]
Format settings, CABAC         : Yes
Format settings, ReFrames      : 4 frames
Codec ID                       : 27
Duration                       : 48 min 57 s
Bit rate                       : 7 117 kb/s
Maximum bit rate               : 7 300 kb/s
Width                          : 1 920 pixels
Height                         : 1 080 pixels
Display aspect ratio           : 16:9
Frame rate                     : 25.000 FPS
Standard                       : Component
Color space                    : YUV
Chroma subsampling             : 4:2:0
Bit depth                      : 8 bits
Scan type                      : MBAFF
Scan type, store method        : Interleaved fields
Scan order                     : Top Field First
Bits/(Pixel*Frame)             : 0.137
Stream size                    : 2.43 GiB (89%)
Color range                    : Limited

Audio
ID                             : 4811 (0x12CB)
Menu ID                        : 301 (0x12D)
Format                         : AC-3
Format/Info                    : Audio Coding 3
Mode extension                 : CM (complete main)
Format settings, Endianness    : Big
Codec ID                       : 6
Duration                       : 48 min 57 s
Bit rate mode                  : Constant
Bit rate                       : 448 kb/s
Maximum bit rate               : 504 kb/s
Channel(s)                     : 6 channels
Channel positions              : Front: L C R, Side: L R, LFE
Sampling rate                  : 48.0 kHz
Frame rate                     : 31.250 FPS (1536 spf)
Bit depth                      : 16 bits
Compression mode               : Lossy
Delay relative to video        : 38 ms
Stream size                    : 157 MiB (6%)
Language                       : English

Menu
ID                             : 4814 (0x12CE)
Menu ID                        : 301 (0x12D)
Duration                       : 48 min 57 s
List                           : 4810 (0x12CA) (AVC) / 4811 (0x12CB) (AC-3, English)
Language                       :  / English
Maximum bit rate               : 18428000   [/quote]
++++++++========++++++++========++++++++======
※※※※※※※ 影片截图 ※※※※※※※
++++++++========++++++++========++++++++======
6d506417369c83b1e87bfca0ac1c1420.jpg
3cff5be345c02a6d4e3b76b93e68a386.jpg



[楚国八百年][全8集.国语中字.央视周志强].EP01-E0P08.2014.CCTV-1.1080i.HDTV.H264.D.torrent (113.17 KB, 下载次数: 94)


作者: 死挣扎!    时间: 2018-8-5 01:18
好资源终于找到了<<[大型历史文献片[楚国八百年][全8集/国语中字/央视周志强]>>
作者: 可原    时间: 2018-8-7 17:10
多谢分享
作者: 腥气    时间: 2018-8-9 03:06
谢谢楼主的分享~~收藏了~~!
作者: 限量版女汉子i    时间: 2018-8-10 13:40
感谢分享啊:aixin:
作者: 二次元的妹子    时间: 2018-8-12 01:18
感谢分享
作者: 失心疯╰╮    时间: 2018-8-14 21:29
666,这个可以支持!
作者: 仦精灵    时间: 2018-8-16 08:05
多谢,谢谢楼主。
作者: 竹排江中游    时间: 2018-8-17 14:55
多谢分享
作者: 寒裳    时间: 2018-8-18 21:37
666,这个可以支持!
作者: 烟久    时间: 2018-8-20 07:21
666,这个可以支持!
作者: 随他吧    时间: 2018-8-21 15:25
多谢,谢谢楼主。
作者: 为爱搁浅心脏    时间: 2018-8-23 01:36
资源可用!谢谢分享!
作者: 梦回千年    时间: 2018-8-24 12:24
强烈感谢:qinzui:
作者: 沙漠里的鱼    时间: 2018-8-25 22:23
资源可用!谢谢分享!
作者: 只剩淡漠    时间: 2018-8-27 08:25
好资源终于找到了<<[大型历史文献片[楚国八百年][全8集/国语中字/央视周志强]>>
作者: ﹊zんí筆抒情﹏    时间: 2018-8-28 18:53
666,这个可以支持!
作者: 呼吸    时间: 2018-8-30 05:39
资源可用!谢谢分享!
作者: Penniless    时间: 2018-8-31 16:24
感谢分享
作者: 朱砂印    时间: 2018-9-3 15:20
前排支持 感谢分享
作者: fstien    时间: 2021-3-12 13:00
值得学习铭记。




欢迎光临 8资源分享论坛 - 资源分享,资源共享|www.8ziyuan.com (https://www.8ziyuan.com/) Powered by Discuz! X3.4