8资源分享论坛 - 资源分享,资源共享|www.8ziyuan.com

标题: 昨日之敌 Yesterdays.Enemy.1959.1080p.BluRay.x264-GHOULS 6.57GB [打印本页]

作者: 唐章小小    时间: 2019-5-29 16:33
标题: 昨日之敌 Yesterdays.Enemy.1959.1080p.BluRay.x264-GHOULS 6.57GB
帖子完整标题:昨日之敌 Yesterdays.Enemy.1959.1080p.BluRay.x264-GHOULS 6.57GB



5ced2edaafd49.png

◎译  名 昨日之敌
◎片  名 Yesterday's Enemy
◎年  代 1959
◎产  地 英国
◎类  别 剧情 / 战争
◎语  言 英语
◎上映日期 1960-08-04
◎IMDb评分 7.1/10 from 562 users
◎IMDb链接 http://www.imdb.com/title/tt0053458
◎豆瓣评分 0/10 from 0 users
◎豆瓣链接 https://movie.douban.com/subject/1298964/
◎片  长 USA: 95 分钟
◎导  演 瓦尔·杰斯特 Val Guest
◎编  剧 Peter R. Newman
◎主  演 斯坦利·贝克 Stanley Baker
      盖伊·罗尔夫 Guy Rolfe
      莱奥·麦凯恩 Leo McKern
      戈登·杰克逊 Gordon Jackson
      菲利普·韩 Philip Ahn
      布莱恩·福布斯 Bryan Forbes


◎标  签 战争 | 1959 | 英国电影 | 英国 | 剧情 | 被忽视的片子 | 银壳 | 移动

◎简  介

  故事发生在二战初期的缅甸, 一队英国士兵,在队长兰福德(斯坦利贝克)的指挥下,疲惫不堪的他们正在试图通过潮湿沼泽、茂密的丛林,找回自己撤退的线路,由于他们当中伤员的负担,他们来到了一个与世隔绝的村庄希望在那里稍事休整,再次转移。
然而,这个村已被日军一支中队占领了 小日本和他们的上校,携带了一些很重要的文件。 在之后的战斗中兰福德的这一发现将对他和他带领这支队伍有深远的影响……(二战电影馆)

Video
ID : 1
Format : AVC
Format/Info : Advanced Video Codec
Format profile : [email protected]
Format settings : CABAC / 5 Ref Frames
Format settings, CABAC : Yes
Format settings, ReFrames : 5 frames
Codec ID : V_MPEG4/ISO/AVC
Duration : 1 h 34 min
Bit rate : 9 146 kb/s
Width : 1 920 pixels
Height : 816 pixels
Display aspect ratio : 2.35:1
Frame rate mode : Constant
Frame rate : 23.976 (24000/1001) FPS
Color space : YUV
Chroma subsampling : 4:2:0
Bit depth : 8 bits
Scan type : Progressive
Bits/(Pixel*Frame) : 0.243
Stream size : 6.05 GiB (92%)
Writing library : x264 core 157 r2932 303c484
Encoding settings : cabac=1 / ref=5 / deblock=1:-3:-3 / analyse=0x3:0x133 / me=umh / subme=9 / psy=1 / psy_rd=1.00:0.00 / mixed_ref=1 / me_range=24 / chroma_me=1 / trellis=1 / 8x8dct=1 / cqm=0 / deadzone=21,11 / fast_pskip=0 / chroma_qp_offset=-2 / threads=24 / lookahead_threads=4 / sliced_threads=0 / nr=0 / decimate=1 / interlaced=0 / bluray_compat=0 / constrained_intra=0 / bframes=8 / b_pyramid=2 / b_adapt=2 / b_bias=0 / direct=3 / weightb=1 / open_gop=0 / weightp=2 / keyint=250 / keyint_min=23 / scenecut=40 / intra_refresh=0 / rc_lookahead=60 / rc=2pass / mbtree=1 / bitrate=9146 / ratetol=1.0 / qcomp=0.60 / qpmin=0 / qpmax=69 / qpstep=4 / cplxblur=20.0 / qblur=0.5 / vbv_maxrate=62500 / vbv_bufsize=78125 / nal_hrd=none / filler=0 / ip_ratio=1.40 / aq=1:1.00
Default : Yes
Forced : No

Audio
ID : 2
Format : DTS
Format/Info : Digital Theater Systems
Codec ID : A_DTS
Duration : 1 h 34 min
Bit rate mode : Constant
Bit rate : 768 kb/s
Channel(s) : 1 channel
Channel layout : C
Sampling rate : 48.0 kHz
Frame rate : 93.750 FPS (512 SPF)
Bit depth : 24 bits
Compression mode : Lossy
Stream size : 520 MiB (8%)
Language : English
Default : Yes
Forced : No

Menu
00:00:00.000 : en:00:00:00.000
00:09:56.596 : en:00:09:56.596
00:23:48.344 : en:00:23:48.344
00:36:41.825 : en:00:36:41.825
00:45:25.848 : en:00:45:25.848
00:51:59.241 : en:00:51:59.241
01:03:32.726 : en:01:03:32.726
01:08:59.552 : en:01:08:59.552
01:15:09.588 : en:01:15:09.588
01:26:44.699 : en:01:26:44.699

5ced30f7efa5a.png




Yesterdays.Enemy.1959.1080p.BluRay.x264-GHOULS.torrent

132.26 KB, 下载次数: 13, 下载积分: 金币 -1


作者: 祭奠‘这羁绊    时间: 2019-5-29 16:33
666,这个可以支持!
作者: 冒牌货    时间: 2019-5-29 22:35
感谢分享
作者: 花龄残伤丶    时间: 2019-5-29 22:39
找了好久终于找到了
作者: 铷裹鰅見妳    时间: 2019-5-30 17:35
前排支持 感谢分享
作者: 話柠    时间: 2019-5-31 17:49
感谢你的分享,论坛有你更加的精彩
作者: 梦想永遠在騷動    时间: 2019-6-1 15:14
金币不够了回复有金币吗
作者: 死挣扎!    时间: 2019-6-2 21:30
太赞了!!!LZ!!!!
作者: 爱⌒轻易说出口    时间: 2019-6-3 06:13
666,这个可以支持!
作者: 烟久    时间: 2019-6-3 13:49
谢谢楼主的分享~~收藏了~~!
作者: hudiednf    时间: 2019-6-3 13:55
支持啦,这么好的东西,也就只有你能发现。
作者: 落落清欢    时间: 2019-6-3 22:43
十分感谢
作者: 偏执的温柔    时间: 2019-6-4 08:32
太赞了!!!LZ!!!!
作者: 腥气    时间: 2019-6-4 17:46
好资源终于找到了<<昨日之敌 Yesterdays.Enemy.1959.1080p.BluRay.x264-GHOULS 6.57GB>>
作者: -葬心葬爱°    时间: 2019-6-5 02:56
前排支持 感谢分享
作者: 让痛无所    时间: 2019-6-5 12:50
强烈感谢:qinzui:
作者: 错乱的人生    时间: 2019-6-5 21:04
强烈感谢:qinzui:
作者: 粢醍    时间: 2019-6-6 07:09
资源可用!谢谢分享!
作者: oぃ輸在喜欢妳    时间: 2019-6-7 00:26
多谢,谢谢楼主。
作者: 朱砂印    时间: 2019-6-7 09:56
强烈感谢:qinzui:
作者: 恐惧散播器┾♂    时间: 2019-6-7 18:34
感谢分享啊:aixin:
作者: 眼角下的眼泪※    时间: 2019-6-8 03:16
多谢分享
作者: 請把小熊还给我    时间: 2019-6-10 07:13
金币不够了回复有金币吗
作者: 随他吧    时间: 2019-6-10 16:29
谢谢楼主分享
作者: 梦回千年    时间: 2019-6-11 01:06
十分感谢
作者: ﹊zんí筆抒情﹏    时间: 2019-6-11 09:48
666,这个可以支持!
作者: 黯然魂销.    时间: 2019-6-11 18:31
谢谢楼主分享
作者: 为爱搁浅心脏    时间: 2019-6-12 04:06
<<昨日之敌 Yesterdays.Enemy.1959.1080p.BluRay.x264-GHOULS 6.57GB>>
作者: 颓废ヤ心碎ゞ    时间: 2019-6-12 14:38
感谢分享啊:aixin:
作者: 温入骨    时间: 2019-6-13 01:34
<<昨日之敌 Yesterdays.Enemy.1959.1080p.BluRay.x264-GHOULS 6.57GB>>
作者: 晚眉妆    时间: 2019-6-13 13:21
资源可用!谢谢分享!
作者: 一切、虚伪    时间: 2019-6-13 15:36
强烈感谢:qinzui:




欢迎光临 8资源分享论坛 - 资源分享,资源共享|www.8ziyuan.com (https://www.8ziyuan.com/) Powered by Discuz! X3.4