8资源分享论坛 - 资源分享,资源共享|www.8ziyuan.com

标题: 哺乳动物/少年禁恋 Mammal.2016.1080p.NF.WEBRip.DD5.1.x264-NTG 3.82GB [打印本页]

作者: 唐章小小    时间: 2020-8-23 00:33
标题: 哺乳动物/少年禁恋 Mammal.2016.1080p.NF.WEBRip.DD5.1.x264-NTG 3.82GB
b7913020f088ba67626d813008532889.jpeg

◎译  名 哺乳动物/少年禁恋(台)
◎片  名 Mammal
◎年  代 2016
◎产  地 爱尔兰
◎类  别 剧情
◎语  言 英语
◎上映日期 2016-01-24(爱尔兰)
◎IMDb评分 6.3/10 from 460 users
◎IMDb链接 https://www.imdb.com/title/tt3777860/
◎豆瓣评分 6.6/10 from 281 users
◎豆瓣链接 https://movie.douban.com/subject/26286214/
◎片  长 99分钟
◎导  演 丽贝卡·达利 Rebecca Daly
◎编  剧 丽贝卡·达利 Rebecca Daly / Glenn Montgomery
◎主  演 瑞切尔·格里菲斯 Rachel Griffiths
      迈克尔·麦克埃尔哈顿 Michael McElhatton
      菲尔·基欧汉 Phil Keoghan
      巴里·基奥恩 Barry Keoghan

◎标  签 爱尔兰 | 剧情 | 2016 | 女性 | 爱尔兰电影 | 家庭 | 人性 | 爱情

◎简  介

  瑪格麗特(瑞秋格瑞菲斯飾演)喪子又離婚,在年輕遊民喬(貝瑞科漢)的身上得到親情般的慰藉,兩人的關係逐漸發展成曖昧情愫,但瑪格麗特的前夫和喬的幫派友人卻無法接受。

◎获奖情况

  第32届圣丹斯电影节 ?(2016)
  评审团大奖世界电影单元剧情片(提名)
Video
ID : 1
Format : AVC
Format/Info : Advanced Video Codec
Format profile : [email protected]
Format settings : CABAC / 3 Ref Frames
Format settings, CABAC : Yes
Format settings, Reference frames : 3 frames
Codec ID : V_MPEG4/ISO/AVC
Duration : 1 h 39 min
Bit rate mode : Variable
Bit rate : 5 110 kb/s
Maximum bit rate : 7 665 kb/s
Width : 1 920 pixels
Height : 1 080 pixels
Display aspect ratio : 16:9
Frame rate mode : Constant
Frame rate : 23.976 (24000/1001/189150) FPS
Color space : YUV
Chroma subsampling : 4:2:0
Bit depth : 8 bits
Scan type : Progressive
Bits/(Pixel*Frame) : 0.103
Stream size : 3.55 GiB (93%)
Writing library : x264 core 118
Encoding settings : cabac=1 / ref=3 / deblock=1:0:0 / analyse=0x1:0x111 / me=umh / subme=10 / psy=1 / psy_rd=1.00:0.00 / mixed_ref=1 / me_range=24 / chroma_me=1 / trellis=2 / 8x8dct=0 / cqm=0 / deadzone=21,11 / fast_pskip=1 / chroma_qp_offset=-2 / threads=8 / sliced_threads=0 / nr=0 / decimate=1 / interlaced=0 / bluray_compat=0 / constrained_intra=0 / bframes=2 / b_pyramid=0 / b_adapt=2 / b_bias=0 / direct=3 / weightb=1 / open_gop=0 / weightp=2 / keyint=48 / keyint_min=25 / scenecut=0 / intra_refresh=0 / rc_lookahead=0 / rc=2pass / mbtree=1 / bitrate=5110 / ratetol=1.0 / qcomp=0.50 / qpmin=6 / qpmax=51 / qpstep=4 / cplxblur=20.0 / qblur=0.5 / vbv_maxrate=7665 / vbv_bufsize=10220 / nal_hrd=vbr / ip_ratio=1.40 / aq=1:1.00
Default : Yes
Forced : No

Audio
ID : 2
Format : AC-3
Format/Info : Audio Coding 3
Commercial name : Dolby Digital
Codec ID : A_AC3
Duration : 1 h 39 min
Bit rate mode : Constant
Bit rate : 384 kb/s
Channel(s) : 6 channels
Channel layout : L R C LFE Ls Rs
Sampling rate : 48.0 kHz
Frame rate : 31.250 FPS (1536 SPF)
Compression mode : Lossy
Stream size : 274 MiB (7%)
Language : English
Service kind : Complete Main
Default : Yes
Forced : No
Encoded date : UTC 2017-05-26 07:56:18

Text #1
ID : 3
Format : UTF-8
Codec ID : S_TEXT/UTF8
Codec ID/Info : UTF-8 Plain Text
Duration : 1 h 33 min
Bit rate : 18 b/s
Count of elements : 528
Stream size : 12.6 KiB (0%)
Language : English
Default : No
Forced : No

Text #2
ID : 4
Format : UTF-8
Codec ID : S_TEXT/UTF8
Codec ID/Info : UTF-8 Plain Text
Duration : 1 h 34 min
Bit rate : 23 b/s
Count of elements : 720
Stream size : 16.4 KiB (0%)
Title : SDH
Language : English
Default : No
Forced : No


Mammal.2016.1080p.NF.WEBRip.DD5.1.x264-NTG.torrent

38.75 KB, 下载次数: 3, 下载积分: 金币 -1


作者: 偏执的温柔    时间: 2020-8-23 05:00
谢谢楼主大人分享
作者: waker8    时间: 2020-8-23 21:15
随便看看,也许就会发现好电影
作者: hdchy    时间: 2020-8-24 00:03
这个又是用来冲奖的片子吧
作者: temp2005t    时间: 2020-8-24 13:48
多谢分享前来收藏
作者: 颓废ヤ心碎ゞ    时间: 2020-8-24 16:00
感谢分享已收藏
作者: 可原    时间: 2020-8-25 15:44
谢谢分享太赞了
作者: 让痛无所    时间: 2020-8-25 17:48
好电影所以前来围观
作者: 梦回千年    时间: 2020-8-25 21:48
感谢分享已经收藏
作者: 朱砂印    时间: 2020-8-26 13:56
多谢楼主,收藏了
作者: keepworkingsp    时间: 2020-8-26 20:55
多谢分享前来收藏
作者: 呼吸    时间: 2020-8-27 05:58
多谢楼主分享
作者: Krureno    时间: 2020-8-29 17:46
感恩分享多谢
作者: 竹排江中游    时间: 2020-8-30 12:07
感谢分享已收藏
作者: Monsterlbv    时间: 2020-8-31 21:13
感谢分享已经收藏
作者: 巷弄    时间: 2020-9-21 14:50
谢谢分享太赞了
作者: gigandteg    时间: 2020-10-7 08:03
感谢分享已经收藏
作者: fuyuyu    时间: 2020-11-2 15:08
感谢分享已经收藏
作者: 木兮木    时间: 2020-11-13 12:34
多谢楼主分享
作者: 你太碍眼    时间: 2020-11-13 14:06
感谢分享已经收藏
作者: VodkaSkg    时间: 2020-11-13 15:42
多谢,楼主终于找到了




欢迎光临 8资源分享论坛 - 资源分享,资源共享|www.8ziyuan.com (https://www.8ziyuan.com/) Powered by Discuz! X3.4