[爱情] 妈妈的女儿.Mother's Daughter.2016.KR.UNCUT.HDRip.1920x1080p.x264.AAC-KOOK.韩语中字

[复制链接]
佛罗里达社区官方认证 发表于 2018-3-21 01:26 | 显示全部楼层 |阅读模式 打印 上一主题 下一主题

※※※※※※※ 影片信息 ※※※※※※※


◎片   名 妈妈的女儿

◎译   名 Mother's Daughter

◎年   代 2016

◎国   家 韩国

◎类   别 剧情 / 情色

◎语   言 韩语

◎上映日 期 2016-05-26(韩国)

◎字   幕 简体字幕/繁体字幕

◎IMDB 评分  /10 from  users

◎豆瓣 评分  3.6/10 from 140 users

◎视频尺 寸  1920x1080p

◎片   长 1.26.56

◎导   演 

◎编     剧  

◎主   演 郑善敏





◎简  介


     讲述女儿和妈妈一起生活会不富裕,幸福的生活着。可信任的男人(强仁)朋友一大笔钱支持强仁,竟是骗子,知道了挫折。结果平时生活条件等,在朋友的支持性买卖赚钱,也要让自己介绍工作的要求。





※※※※※※※ 参数信息 ※※※※※※※




General

Unique ID                      : 239927219205082756509270451165943036006 (0xB4804D3544BCE674831F4ADE6773F866)


Format                         : Matroska

Format version                 : Version 4 / Version 2

File size                      : 1.71 GiB

Duration                       : 1 h 25 min

Overall bit rate               : 2 843 kb/s

Encoded date                   : UTC 2018-03-13 13:59:54

Writing application            : mkvmerge v9.4.2 ('So High') 64bit

Writing library                : libebml v1.3.4 + libmatroska v1.4.5

Attachments                    : 正式海报.jpg


Video

ID                             : 1

Format                         : AVC

Format/Info                    : Advanced Video Codec

Format profile                 : [email protected]

Format settings, CABAC         : No

Format settings, ReFrames      : 2 frames

Codec ID                       : V_MPEG4/ISO/AVC

Duration                       : 1 h 25 min

Bit rate                       : 2 683 kb/s

Width                          : 1 920 pixels

Height                         : 1 080 pixels

Display aspect ratio           : 16:9

Frame rate mode                : Constant

Frame rate                     : 24.000 FPS

Standard                       : NTSC

Color space                    : YUV

Chroma subsampling             : 4:2:0

Bit depth                      : 8 bits

Scan type                      : Progressive

Bits/(Pixel*Frame)             : 0.054

Stream size                    : 1.61 GiB (94%)

Title                          : kook

Language                       : English

Default                        : Yes

Forced                         : No

Color range                    : Limited


Audio

ID                             : 2

Format                         : AAC

Format/Info                    : Advanced Audio Codec

Format profile                 : LC

Codec ID                       : A_AAC

Duration                       : 1 h 25 min

Bit rate                       : 157 kb/s

Channel(s)                     : 2 channels

Channel positions              : Front: L R

Sampling rate                  : 48.0 kHz

Frame rate                     : 46.875 FPS (1024 spf)

Compression mode               : Lossy

Stream size                    : 96.7 MiB (6%)

Language                       : English

Default                        : Yes

Forced                         : No


Text #1

ID                             : 3

Format                         : ASS

Codec ID                       : S_TEXT/ASS

Codec ID/Info                  : Advanced Sub Station Alpha

Duration                       : 1 h 24 min

Bit rate                       : 69 b/s

Count of elements              : 739

Compression mode               : Lossless

Stream size                    : 43.1 KiB (0%)

Title                          : 简体字幕

Language                       : Chinese

Default                        : Yes

Forced                         : No


Text #2

ID                             : 4

Format                         : ASS

Codec ID                       : S_TEXT/ASS

Codec ID/Info                  : Advanced Sub Station Alpha

Duration                       : 1 h 24 min

Bit rate                       : 69 b/s

Count of elements              : 739

Compression mode               : Lossless

Stream size                    : 43.1 KiB (0%)

Title                          : 繁体字幕

Language                       : Chinese

Default                        : No

Forced                         : No


妈妈的女儿.Mother's Daughter.2016.KR.UNCUT.HDRip.1920x1080p.x264.AAC-KOOK.[.torrent (72.43 KB, 下载次数: 231)

即日起,我们启动大专辑整理计划;就是整理歌手的专辑合集档发布,诸位有什么喜欢的歌手,想要我提前整理发布的,可以给我留言哦;

精彩评论5

我爱、流氓兔 发表于 2018-3-23 03:19 | 显示全部楼层
我也是坐沙发的

温馨提示

记得善用社区搜索功能,那里可能会有你想要的资源;论坛站内搜索

如果你有什么需要的资源可以去悬赏问答发帖,求助社区的网友,我们会在第一时间给你回复哦;资源求档

对于本社区如果你有任何好建议或者相关合作可以随时与我们联系,或者在反馈建议发帖,您的支持,是我们发展的最大动力;投诉建议

青春美少女噢耶 发表于 2018-3-23 07:46 | 显示全部楼层
感谢楼主分享哦,支持了;

温馨提示

记得善用社区搜索功能,那里可能会有你想要的资源;论坛站内搜索

如果你有什么需要的资源可以去悬赏问答发帖,求助社区的网友,我们会在第一时间给你回复哦;资源求档

对于本社区如果你有任何好建议或者相关合作可以随时与我们联系,或者在反馈建议发帖,您的支持,是我们发展的最大动力;投诉建议

初中妹 发表于 2018-3-31 11:01 | 显示全部楼层
为保住菊花,这个一定得回复!

温馨提示

记得善用社区搜索功能,那里可能会有你想要的资源;论坛站内搜索

如果你有什么需要的资源可以去悬赏问答发帖,求助社区的网友,我们会在第一时间给你回复哦;资源求档

对于本社区如果你有任何好建议或者相关合作可以随时与我们联系,或者在反馈建议发帖,您的支持,是我们发展的最大动力;投诉建议

最假的是眼泪 发表于 2018-3-31 19:04 | 显示全部楼层
是爷们的娘们的都帮顶!大力支持

温馨提示

记得善用社区搜索功能,那里可能会有你想要的资源;论坛站内搜索

如果你有什么需要的资源可以去悬赏问答发帖,求助社区的网友,我们会在第一时间给你回复哦;资源求档

对于本社区如果你有任何好建议或者相关合作可以随时与我们联系,或者在反馈建议发帖,您的支持,是我们发展的最大动力;投诉建议

凉梦 发表于 2018-4-1 08:00 | 显示全部楼层
秀起来~

温馨提示

记得善用社区搜索功能,那里可能会有你想要的资源;论坛站内搜索

如果你有什么需要的资源可以去悬赏问答发帖,求助社区的网友,我们会在第一时间给你回复哦;资源求档

对于本社区如果你有任何好建议或者相关合作可以随时与我们联系,或者在反馈建议发帖,您的支持,是我们发展的最大动力;投诉建议

本版积分规则
提醒:禁止复制他人回复等『恶意灌水』行为,违者重罚!

发布主题
阅读排行更多+
快速回复 收藏帖子 返回列表
即刻加入,享受更多精彩。 会员登录[Login] 注册[Register]
资源分享,资源共享。
官方Facebok
Facebook.com/8ziyuan
意见反馈:[email protected]

关注我们的官方Twitter

Powered by Discuz! © 2016-2021 8ziyuan.com Inc. Protected by CloudFlare | 小黑屋 | 8资源分享论坛 | RSS订阅 | 手机版 | 联系我们