[日韩剧] [BT下载]性爱不眠夜2.Love Insomnia Night 2.2016.KR.HDRip.1280x720p.x264.MP3-KOOK.[韩语中字]

[复制链接]
佛罗里达社区官方认证 发表于 2018-3-21 01:28 | 显示全部楼层 |阅读模式 打印 上一主题 下一主题


※※※※※※※ 影片信息 ※※※※※※※

◎片   名 Love Insomnia Night 2
◎译   名 性爱不眠夜2
◎年   代 2016
◎国   家 韩国
◎类   别 剧情/情色
◎语   言 韩语
◎上映日 期 2016-05-19(韩国)
◎字   幕 简体字幕/繁体字幕
◎IMDB 评分  /10 from  users
◎豆瓣 评分  2.9/10 from 111 users
◎视频尺 寸  1280x720p
◎片   长 
◎导   演 Lee Min-hwan
◎编     剧  
◎主   演 姜艺娜




◎简  介

  讲述的是一个女性小说家,大概是写色情小说的,可是她需要灵感,怎么办,只能找些人和她做一些少儿不宜的事情,于是快递员上门的时候遭了秧,一个小胖子遭了秧,公园里运动的男人遭了秧,我的天哪,关键是,她家的那只小熊也遭了秧,这只小布熊被折磨了好多次,什么都不说,直接上图。此时此刻,是不是想着这只小熊是自己该多好啊,这也就是我为什么用一个戴眼镜美女和一只小熊的故事为标题的理由。
放过这只熊,让我来!



※※※※※※※ 参数信息 ※※※※※※※



General
Unique ID                      : 193870792158010631557945697997370682210 (0x91DA2809901BF2C592CA258DD907EB62)

Format                         : Matroska
Format version                 : Version 4 / Version 2
File size                      : 2.94 GiB
Duration                       : 1 h 17 min
Overall bit rate               : 5 427 kb/s
Encoded date                   : UTC 2018-03-08 14:08:38
Writing application            : mkvmerge v9.4.2 ('So High') 64bit
Writing library                : libebml v1.3.4 + libmatroska v1.4.5
Attachments                    : 正式海报.jpg

Video
ID                             : 1
Format                         : AVC
Format/Info                    : Advanced Video Codec
Format profile                 : [email protected]
Format settings, CABAC         : No
Format settings, ReFrames      : 1 frame
Codec ID                       : V_MPEG4/ISO/AVC
Duration                       : 1 h 17 min
Bit rate                       : 5 313 kb/s
Width                          : 1 280 pixels
Height                         : 720 pixels
Display aspect ratio           : 16:9
Frame rate mode                : Constant
Frame rate                     : 24.000 FPS
Color space                    : YUV
Chroma subsampling             : 4:2:0
Bit depth                      : 8 bits
Scan type                      : Progressive
Bits/(Pixel*Frame)             : 0.240
Stream size                    : 2.88 GiB (98%)
Title                          : kook
Default                        : Yes
Forced                         : No

Audio
ID                             : 2
Format                         : MPEG Audio
Format version                 : Version 2
Format profile                 : Layer 3
Mode                           : Joint stereo
Mode extension                 : MS Stereo
Codec ID                       : A_MPEG/L3
Codec ID/Hint                  : MP3
Duration                       : 1 h 17 min
Bit rate mode                  : Constant
Bit rate                       : 112 kb/s
Channel(s)                     : 2 channels
Sampling rate                  : 22.05 kHz
Frame rate                     : 38.281 FPS (576 spf)
Compression mode               : Lossy
Stream size                    : 62.2 MiB (2%)
Writing library                : LAME3.98r
Encoding settings              : -m j -V 4 -q 9 -lowpass 11 -b 112
Default                        : Yes
Forced                         : No

Text #1
ID                             : 3
Format                         : ASS
Codec ID                       : S_TEXT/ASS
Codec ID/Info                  : Advanced Sub Station Alpha
Duration                       : 1 h 17 min
Bit rate                       : 59 b/s
Count of elements              : 617
Compression mode               : Lossless
Stream size                    : 33.3 KiB (0%)
Title                          : 简体字幕
Language                       : Chinese
Default                        : Yes
Forced                         : No

Text #2
ID                             : 4
Format                         : ASS
Codec ID                       : S_TEXT/ASS
Codec ID/Info                  : Advanced Sub Station Alpha
Duration                       : 1 h 17 min
Bit rate                       : 59 b/s
Count of elements              : 617
Compression mode               : Lossless
Stream size                    : 33.3 KiB (0%)
Title                          : 繁体字幕
Language                       : Chinese
Default                        : No
Forced                         : No



性爱不眠夜2.Love Insomnia Night 2.2016.KR.HDRip.1280x720p.x264.MP3-KOOK.[韩语中.torrent (121.93 KB, 下载次数: 358)
即日起,我们启动大专辑整理计划;就是整理歌手的专辑合集档发布,诸位有什么喜欢的歌手,想要我提前整理发布的,可以给我留言哦;

精彩评论5

与石碰碰硬 发表于 2018-3-21 01:41 | 显示全部楼层
确实不错,顶先

温馨提示

记得善用社区搜索功能,那里可能会有你想要的资源;论坛站内搜索

如果你有什么需要的资源可以去悬赏问答发帖,求助社区的网友,我们会在第一时间给你回复哦;资源求档

对于本社区如果你有任何好建议或者相关合作可以随时与我们联系,或者在反馈建议发帖,您的支持,是我们发展的最大动力;投诉建议

爱伱是我的义务 发表于 2018-4-9 09:38 | 显示全部楼层
支持你哈...................................

温馨提示

记得善用社区搜索功能,那里可能会有你想要的资源;论坛站内搜索

如果你有什么需要的资源可以去悬赏问答发帖,求助社区的网友,我们会在第一时间给你回复哦;资源求档

对于本社区如果你有任何好建议或者相关合作可以随时与我们联系,或者在反馈建议发帖,您的支持,是我们发展的最大动力;投诉建议

hglsz 发表于 2021-6-10 19:42 | 显示全部楼层
杠六十多个

温馨提示

记得善用社区搜索功能,那里可能会有你想要的资源;论坛站内搜索

如果你有什么需要的资源可以去悬赏问答发帖,求助社区的网友,我们会在第一时间给你回复哦;资源求档

对于本社区如果你有任何好建议或者相关合作可以随时与我们联系,或者在反馈建议发帖,您的支持,是我们发展的最大动力;投诉建议

resurger 发表于 2021-6-11 10:56 | 显示全部楼层
姜艺娜  大美女!

温馨提示

记得善用社区搜索功能,那里可能会有你想要的资源;论坛站内搜索

如果你有什么需要的资源可以去悬赏问答发帖,求助社区的网友,我们会在第一时间给你回复哦;资源求档

对于本社区如果你有任何好建议或者相关合作可以随时与我们联系,或者在反馈建议发帖,您的支持,是我们发展的最大动力;投诉建议

k529 发表于 2021-6-12 16:46 | 显示全部楼层
感谢分享

温馨提示

记得善用社区搜索功能,那里可能会有你想要的资源;论坛站内搜索

如果你有什么需要的资源可以去悬赏问答发帖,求助社区的网友,我们会在第一时间给你回复哦;资源求档

对于本社区如果你有任何好建议或者相关合作可以随时与我们联系,或者在反馈建议发帖,您的支持,是我们发展的最大动力;投诉建议

本版积分规则
提醒:禁止复制他人回复等『恶意灌水』行为,违者重罚!

发布主题
阅读排行更多+
快速回复 收藏帖子 返回列表
即刻加入,享受更多精彩。 会员登录[Login] 注册[Register]
资源分享,资源共享。
官方Facebok
Facebook.com/8ziyuan
意见反馈:[email protected]

关注我们的官方Twitter

Powered by Discuz! © 2016-2021 8ziyuan.com Inc. Protected by CloudFlare | 小黑屋 | 8资源分享论坛 | RSS订阅 | 手机版 | 联系我们