[日韩剧] [BT下载]未删减版.愈合伴侣.Healing Mate.2014.KR.UNCUT.HDRip.1280x720p.x264.AAC-KOOK.[韩语中字]

[复制链接]
佛罗里达社区官方认证 发表于 2018-3-21 01:31 | 显示全部楼层 |阅读模式 打印 上一主题 下一主题


未删减版


※※※※※※※ 影片信息 ※※※※※※※

◎片   名 Healing Mate
◎译   名 愈合伴侣 / 性爱治愈 / 治愈天使 / Healingmate /
◎年   代 2014
◎国   家 韩国
◎类   别 情色
◎语   言 韩语
◎上映日 期 2014-11-12
◎字   幕 简体字幕/繁体字幕
◎IMDB 评分  /10 from  users
◎豆瓣 评分  4.3/10 from 425 users
◎视频尺 寸  1280x720p
◎片   长 2.14.20
◎导   演 
◎编     剧  
◎主   演 严智慧  秦慧京




◎简  介


  女孩做妓女骗钱,后遇到一个咖啡店女老板,两人情感的治愈。




※※※※※※※ 参数信息 ※※※※※※※



General
Unique ID                      : 204609544442779499399345713400382623460 (0x99EE5D6722C64931A72398C7D9A20EE4)

Format                         : Matroska
Format version                 : Version 4 / Version 2
File size                      : 2.99 GiB
Duration                       : 2 h 14 min
Overall bit rate               : 3 189 kb/s
Encoded date                   : UTC 2018-03-03 09:08:46
Writing application            : mkvmerge v9.4.2 ('So High') 64bit
Writing library                : libebml v1.3.4 + libmatroska v1.4.5
Attachments                    : 正式海报.jpg

Video
ID                             : 1
Format                         : AVC
Format/Info                    : Advanced Video Codec
Format profile                 : [email protected]
Format settings, CABAC         : No
Format settings, ReFrames      : 2 frames
Codec ID                       : V_MPEG4/ISO/AVC
Duration                       : 2 h 14 min
Bit rate                       : 2 994 kb/s
Width                          : 1 280 pixels
Height                         : 720 pixels
Display aspect ratio           : 16:9
Frame rate mode                : Constant
Frame rate                     : 29.970 (30000/1001) FPS
Standard                       : NTSC
Color space                    : YUV
Chroma subsampling             : 4:2:0
Bit depth                      : 8 bits
Scan type                      : Progressive
Bits/(Pixel*Frame)             : 0.108
Stream size                    : 2.81 GiB (94%)
Title                          : kook
Language                       : English
Default                        : Yes
Forced                         : No
Color range                    : Limited

Audio
ID                             : 2
Format                         : AAC
Format/Info                    : Advanced Audio Codec
Format profile                 : LC
Codec ID                       : A_AAC
Duration                       : 2 h 14 min
Bit rate                       : 192 kb/s
Channel(s)                     : 2 channels
Channel positions              : Front: L R
Sampling rate                  : 44.1 kHz
Frame rate                     : 43.066 FPS (1024 spf)
Compression mode               : Lossy
Stream size                    : 182 MiB (6%)
Language                       : English
Default                        : Yes
Forced                         : No

Text #1
ID                             : 3
Format                         : ASS
Codec ID                       : S_TEXT/ASS
Codec ID/Info                  : Advanced Sub Station Alpha
Duration                       : 2 h 12 min
Bit rate                       : 44 b/s
Count of elements              : 750
Compression mode               : Lossless
Stream size                    : 43.8 KiB (0%)
Title                          : 简体字幕
Language                       : Chinese
Default                        : Yes
Forced                         : No

Text #2
ID                             : 4
Format                         : ASS
Codec ID                       : S_TEXT/ASS
Codec ID/Info                  : Advanced Sub Station Alpha
Duration                       : 2 h 12 min
Bit rate                       : 44 b/s
Count of elements              : 750
Compression mode               : Lossless
Stream size                    : 43.8 KiB (0%)
Title                          : 繁体字幕
Language                       : Chinese
Default                        : No
Forced                         : No


愈合伴侣.Healing Mate.2014.KR.UNCUT.HDRip.1280x720p.x264.AAC-KOOK.[韩语中字].tor.torrent (123.49 KB, 下载次数: 434)
即日起,我们启动大专辑整理计划;就是整理歌手的专辑合集档发布,诸位有什么喜欢的歌手,想要我提前整理发布的,可以给我留言哦;

精彩评论7

背叛如狗 发表于 2018-3-21 01:47 | 显示全部楼层
是爷们的娘们的都帮顶!大力支持

温馨提示

记得善用社区搜索功能,那里可能会有你想要的资源;论坛站内搜索

如果你有什么需要的资源可以去悬赏问答发帖,求助社区的网友,我们会在第一时间给你回复哦;资源求档

对于本社区如果你有任何好建议或者相关合作可以随时与我们联系,或者在反馈建议发帖,您的支持,是我们发展的最大动力;投诉建议

酷似你祖宗` 发表于 2018-3-29 06:54 | 显示全部楼层
啊啊啊啊啊啊啊啊啊啊啊

温馨提示

记得善用社区搜索功能,那里可能会有你想要的资源;论坛站内搜索

如果你有什么需要的资源可以去悬赏问答发帖,求助社区的网友,我们会在第一时间给你回复哦;资源求档

对于本社区如果你有任何好建议或者相关合作可以随时与我们联系,或者在反馈建议发帖,您的支持,是我们发展的最大动力;投诉建议

xiaoyaohou32 发表于 2021-1-18 09:50 | 显示全部楼层
看过删减版的,足足少了半个小时

温馨提示

记得善用社区搜索功能,那里可能会有你想要的资源;论坛站内搜索

如果你有什么需要的资源可以去悬赏问答发帖,求助社区的网友,我们会在第一时间给你回复哦;资源求档

对于本社区如果你有任何好建议或者相关合作可以随时与我们联系,或者在反馈建议发帖,您的支持,是我们发展的最大动力;投诉建议

leasonbl23 发表于 2021-1-18 18:29 | 显示全部楼层
好像不错,感谢分享

温馨提示

记得善用社区搜索功能,那里可能会有你想要的资源;论坛站内搜索

如果你有什么需要的资源可以去悬赏问答发帖,求助社区的网友,我们会在第一时间给你回复哦;资源求档

对于本社区如果你有任何好建议或者相关合作可以随时与我们联系,或者在反馈建议发帖,您的支持,是我们发展的最大动力;投诉建议

panguojun21 发表于 2021-2-15 14:18 | 显示全部楼层
很好的分享,谢谢楼主!
开心
lisir_007 发表于 2021-3-31 14:16 | 显示全部楼层
看看

温馨提示

记得善用社区搜索功能,那里可能会有你想要的资源;论坛站内搜索

如果你有什么需要的资源可以去悬赏问答发帖,求助社区的网友,我们会在第一时间给你回复哦;资源求档

对于本社区如果你有任何好建议或者相关合作可以随时与我们联系,或者在反馈建议发帖,您的支持,是我们发展的最大动力;投诉建议

pacrick 发表于 2021-4-9 00:45 | 显示全部楼层
感谢分享~多谢

温馨提示

记得善用社区搜索功能,那里可能会有你想要的资源;论坛站内搜索

如果你有什么需要的资源可以去悬赏问答发帖,求助社区的网友,我们会在第一时间给你回复哦;资源求档

对于本社区如果你有任何好建议或者相关合作可以随时与我们联系,或者在反馈建议发帖,您的支持,是我们发展的最大动力;投诉建议

本版积分规则
提醒:禁止复制他人回复等『恶意灌水』行为,违者重罚!

发布主题
阅读排行更多+
快速回复 收藏帖子 返回列表
即刻加入,享受更多精彩。 会员登录[Login] 注册[Register]
资源分享,资源共享。
官方Facebok
Facebook.com/8ziyuan
意见反馈:[email protected]

关注我们的官方Twitter

Powered by Discuz! © 2016-2020 8ziyuan.com Inc. Protected by CloudFlare | 小黑屋 | 8资源分享论坛 | RSS订阅 | 手机版 | 联系我们