[爱情] 偷窥的欲望.Voyeurism.2016.KR.WEB-DL.1920x1080p.x264.AAC-KOOK.[韩语中字] 4.52GB

  [复制链接]
唐章小小社区官方认证 发表于 2018-7-4 14:48 | 显示全部楼层 |阅读模式 打印 上一主题 下一主题
偷窥的欲望.Voyeurism.2016.KR.WEB-DL.1920x1080p.x264.AAC-KOOK.[韩语中字] 4.52GB
无广告,无水印
不定时做种,保证出种,请耐心等待.

26d913d70dfc84e8bd35cd1a06f68143.jpg
※※※※※※※ 影片信息 ※※※※※※※
◎片   名 偷窥的欲望
◎译   名 西洋镜 / Voyeurism
◎年   代 2016
◎国   家 韩国
◎类   别 爱情 / 情色
◎语   言 韩语
◎上映日 期 2016-02-25(韩国)
◎字   幕 简体字幕/繁体字幕
◎豆瓣 评分  5.4/10 from 237 users
◎视频尺 寸  1920x1080p
◎片   长 1.39.57
◎导   演 李相彬
◎主   演 卢素兰 Suram Noh / 葵司 Tsukasa Aoi


◎简  介

   
  李在勋是一个摄影师,但他被解雇了,现在是一个狗仔。他的工作很闻名,但他通常的任务是抓人偷情。有一天,他接到了一个女人打来的一个电话,让他来监视她的孪生妹妹。妹妹拥有性咨询诊所,因此他作为一个病人去接触。然后他开始看她的秘密。妹妹却有露阴癖,随着时间的推移,他的窥阴癖和和妹妹的露阴癖。医生的妹妹取消她的请求,但已经太迟了。然后他发现医生不是一个孪生妹妹,但事实上是.....


※※※※※※※ 参数信息 ※※※※※※※

General
Unique ID                      : 213424132056081752008854849084625156617 (0xA08FFE202803F934BFD0E5BD7BC67A09)
Format                         : Matroska
Format version                 : Version 4 / Version 2
File size                      : 4.52 GiB
Duration                       : 1 h 39 min
Overall bit rate mode          : Variable
Overall bit rate               : 6 479 kb/s
Movie name                     : KOOK
Encoded date                   : UTC 2018-06-30 04:02:52
Writing application            : mkvmerge v9.4.2 ('So High') 64bit
Writing library                : libebml v1.3.4 + libmatroska v1.4.5
Attachments                    : fzlbfw.ttf / fzlbjw.ttf / 正式海报 韩国.jpg
Video
ID                             : 1
Format                         : AVC
Format/Info                    : Advanced Video Codec
Format profile                 : [email protected]
Format settings, CABAC         : Yes
Format settings, ReFrames      : 3 frames
Codec ID                       : V_MPEG4/ISO/AVC
Duration                       : 1 h 39 min
Bit rate mode                  : Variable
Bit rate                       : 6 144 kb/s
Maximum bit rate               : 41.0 Mb/s
Width                          : 1 920 pixels
Height                         : 1 080 pixels
Display aspect ratio           : 16:9
Frame rate mode                : Constant
Frame rate                     : 29.970 (30000/1001) FPS
Color space                    : YUV
Chroma subsampling             : 4:2:0
Bit depth                      : 8 bits
Scan type                      : Progressive
Bits/(Pixel*Frame)             : 0.099
Stream size                    : 4.29 GiB (95%)
Writing library                : x264 core 142
Encoding settings              : cabac=1 / ref=3 / deblock=1:0:0 / analyse=0x3:0x113 / me=umh / subme=8 / psy=1 / psy_rd=1.00:0.00 / mixed_ref=1 / me_range=16 / chroma_me=1 / trellis=1 / 8x8dct=1 / cqm=0 / deadzone=21,11 / fast_pskip=1 / chroma_qp_offset=-2 / threads=16 / lookahead_threads=2 / sliced_threads=0 / nr=0 / decimate=1 / interlaced=0 / bluray_compat=0 / constrained_intra=0 / bframes=1 / b_pyramid=0 / b_adapt=2 / b_bias=0 / direct=3 / weightb=1 / open_gop=0 / weightp=2 / keyint=250 / keyint_min=25 / scenecut=40 / intra_refresh=0 / rc_lookahead=50 / rc=2pass / mbtree=1 / bitrate=6144 / ratetol=1.0 / qcomp=0.60 / qpmin=0 / qpmax=69 / qpstep=4 / cplxblur=20.0 / qblur=0.5 / vbv_maxrate=40960 / vbv_bufsize=40960 / nal_hrd=vbr / filler=0 / ip_ratio=1.40 / aq=1:1.00
Default                        : Yes
Forced                         : No
Audio
ID                             : 2
Format                         : AAC
Format/Info                    : Advanced Audio Codec
Format profile                 : LC
Codec ID                       : A_AAC
Duration                       : 1 h 39 min
Bit rate                       : 320 kb/s
Channel(s)                     : 2 channels
Channel positions              : Front: L R
Sampling rate                  : 48.0 kHz
Frame rate                     : 46.875 FPS (1024 spf)
Compression mode               : Lossy
Delay relative to video        : -42 ms
Stream size                    : 229 MiB (5%)
Default                        : Yes
Forced                         : No
Text #1
ID                             : 3
Format                         : ASS
Codec ID                       : S_TEXT/ASS
Codec ID/Info                  : Advanced Sub Station Alpha
Duration                       : 1 h 38 min
Bit rate                       : 35 b/s
Count of elements              : 432
Compression mode               : Lossless
Stream size                    : 25.3 KiB (0%)
Title                          : 简体字幕
Language                       : Chinese
Default                        : Yes
Forced                         : No
Text #2
ID                             : 4
Format                         : ASS
Codec ID                       : S_TEXT/ASS
Codec ID/Info                  : Advanced Sub Station Alpha
Duration                       : 1 h 38 min
Bit rate                       : 35 b/s
Count of elements              : 432
Compression mode               : Lossless
Stream size                    : 25.3 KiB (0%)
Title                          : 繁体字幕
Language                       : Chinese
Default                        : No
Forced                         : No

265d818863ddbb2b6ca74a0c05fab7bd.jpg

偷窥的欲望.Voyeurism.2016.KR.WEB-DL.1920x1080p.x264.AAC-KOOK.[韩语中字].torrent (94.61 KB, 下载次数: 336)

温馨提示

记得善用社区搜索功能,那里可能会有你想要的资源;论坛站内搜索

如果你有什么需要的资源可以去悬赏问答发帖,求助社区的网友,我们会在第一时间给你回复哦;资源求档

对于本社区如果你有任何好建议或者相关合作可以随时与我们联系,或者在反馈建议发帖,您的支持,是我们发展的最大动力;投诉建议

精彩评论18

小资情调 发表于 2018-7-4 15:38 | 显示全部楼层
锄禾日当午,发帖真辛苦。谁知坛中餐,帖帖皆辛苦!

温馨提示

记得善用社区搜索功能,那里可能会有你想要的资源;论坛站内搜索

如果你有什么需要的资源可以去悬赏问答发帖,求助社区的网友,我们会在第一时间给你回复哦;资源求档

对于本社区如果你有任何好建议或者相关合作可以随时与我们联系,或者在反馈建议发帖,您的支持,是我们发展的最大动力;投诉建议

‖饿狼传说‖ 发表于 2018-7-10 08:33 | 显示全部楼层
<<偷窥的欲望.Voyeurism.2016.KR.WEB-DL.1920x1080p.x264.AAC-KOOK.[韩语中字] 4.52GB>>

温馨提示

记得善用社区搜索功能,那里可能会有你想要的资源;论坛站内搜索

如果你有什么需要的资源可以去悬赏问答发帖,求助社区的网友,我们会在第一时间给你回复哦;资源求档

对于本社区如果你有任何好建议或者相关合作可以随时与我们联系,或者在反馈建议发帖,您的支持,是我们发展的最大动力;投诉建议

扰人心丶 发表于 2018-7-11 12:30 | 显示全部楼层
<<偷窥的欲望.Voyeurism.2016.KR.WEB-DL.1920x1080p.x264.AAC-KOOK.[韩语中字] 4.52GB>>

温馨提示

记得善用社区搜索功能,那里可能会有你想要的资源;论坛站内搜索

如果你有什么需要的资源可以去悬赏问答发帖,求助社区的网友,我们会在第一时间给你回复哦;资源求档

对于本社区如果你有任何好建议或者相关合作可以随时与我们联系,或者在反馈建议发帖,您的支持,是我们发展的最大动力;投诉建议

国民好哥哥 发表于 2018-7-13 15:25 | 显示全部楼层
<<偷窥的欲望.Voyeurism.2016.KR.WEB-DL.1920x1080p.x264.AAC-KOOK.[韩语中字] 4.52GB>>

温馨提示

记得善用社区搜索功能,那里可能会有你想要的资源;论坛站内搜索

如果你有什么需要的资源可以去悬赏问答发帖,求助社区的网友,我们会在第一时间给你回复哦;资源求档

对于本社区如果你有任何好建议或者相关合作可以随时与我们联系,或者在反馈建议发帖,您的支持,是我们发展的最大动力;投诉建议

满栀 发表于 2018-7-18 12:46 来自手机 | 显示全部楼层
金币不够了回复有金币吗

温馨提示

记得善用社区搜索功能,那里可能会有你想要的资源;论坛站内搜索

如果你有什么需要的资源可以去悬赏问答发帖,求助社区的网友,我们会在第一时间给你回复哦;资源求档

对于本社区如果你有任何好建议或者相关合作可以随时与我们联系,或者在反馈建议发帖,您的支持,是我们发展的最大动力;投诉建议

木兮木 发表于 2018-7-20 13:36 来自手机 | 显示全部楼层
谢谢楼主的分享~~收藏了~~!

温馨提示

记得善用社区搜索功能,那里可能会有你想要的资源;论坛站内搜索

如果你有什么需要的资源可以去悬赏问答发帖,求助社区的网友,我们会在第一时间给你回复哦;资源求档

对于本社区如果你有任何好建议或者相关合作可以随时与我们联系,或者在反馈建议发帖,您的支持,是我们发展的最大动力;投诉建议

梵以姑娘i 发表于 2018-7-22 08:59 来自手机 | 显示全部楼层
感谢分享

温馨提示

记得善用社区搜索功能,那里可能会有你想要的资源;论坛站内搜索

如果你有什么需要的资源可以去悬赏问答发帖,求助社区的网友,我们会在第一时间给你回复哦;资源求档

对于本社区如果你有任何好建议或者相关合作可以随时与我们联系,或者在反馈建议发帖,您的支持,是我们发展的最大动力;投诉建议

相许 发表于 2018-7-23 06:33 | 显示全部楼层
谢谢楼主的分享~~收藏了~~!

温馨提示

记得善用社区搜索功能,那里可能会有你想要的资源;论坛站内搜索

如果你有什么需要的资源可以去悬赏问答发帖,求助社区的网友,我们会在第一时间给你回复哦;资源求档

对于本社区如果你有任何好建议或者相关合作可以随时与我们联系,或者在反馈建议发帖,您的支持,是我们发展的最大动力;投诉建议

梦回千年 发表于 2018-7-24 06:31 | 显示全部楼层
金币不够了回复有金币吗

温馨提示

记得善用社区搜索功能,那里可能会有你想要的资源;论坛站内搜索

如果你有什么需要的资源可以去悬赏问答发帖,求助社区的网友,我们会在第一时间给你回复哦;资源求档

对于本社区如果你有任何好建议或者相关合作可以随时与我们联系,或者在反馈建议发帖,您的支持,是我们发展的最大动力;投诉建议

本版积分规则
提醒:禁止复制他人回复等『恶意灌水』行为,违者重罚!

发布主题
阅读排行更多+
快速回复 收藏帖子 返回列表
即刻加入,享受更多精彩。 会员登录[Login] 注册[Register]
资源分享,资源共享。
官方Facebok
Facebook.com/8ziyuan
意见反馈:[email protected]

关注我们的官方Twitter

Powered by Discuz! © 2016-2021 8ziyuan.com Inc. Protected by CloudFlare | 小黑屋 | 8资源分享论坛 | RSS订阅 | 手机版 | 联系我们