请选择 进入手机版 | 继续访问电脑版

[剧情] [BT下载]朝政/公共事务 Affairs.of.State.2018.1080p.BluRay.x264.DTS-MT 9.2GB

   关闭 [复制链接]
唐章小小社区官方认证 发表于 2018-8-5 00:26 | 显示全部楼层 |阅读模式 打印 上一主题 下一主题
c9fcc34372618f3df5df88d284fa58ae.jpg
◎译  名 朝政/公共事务/国家大事
◎片  名 Public Affairs
◎年  代 2018
◎产  地 美国
◎类  别 剧情
◎语  言 英语
◎上映日期 2018-06-15(美国部分上映)
◎IMDb评分  4.5/10 from 242 users
◎BT之家整理 http://www.btbtt.co
◎片  长 97分钟
◎导  演 埃里克·布罗斯 Eric Bross
◎主  演 索拉·伯奇 Thora Birch
      米密·罗杰斯 Mimi Rogers
      艾德里安·格尼尔 Adrian Grenier
      大卫·詹姆斯·艾略特 David James Elliott
      菲·格兰特 Faye Grant
      格蕾丝·维多利亚·考克斯 Grace Victoria Cox
      布兰登·哈代斯蒂 Brandon Hardesty
      Betsy Landin
      David Corenswet
      Bonnie Johnson
      Morgan Cryer
      Eugenia Gonzales
      Victoria Harris
      Cherri Reams
      Bernadette Sayre

◎简  介

  A young campaign aide gets in way over his head when he sleeps with the wife and daughter of a presidential candidate only to end up bleeding out on the side of anempty road at night.

Video
ID : 1
Format : AVC
Format/Info : Advanced Video Codec
Format profile : [email protected]
Format settings : CABAC / 4 Ref Frames
Format settings, CABAC : Yes
Format settings, ReFrames : 4 frames
Codec ID : V_MPEG4/ISO/AVC
Duration : 1 h 37 min
Bit rate : 12.0 Mb/s
Width : 1 920 pixels
Height : 1 080 pixels
Display aspect ratio : 16:9
Frame rate mode : Constant
Frame rate : 23.976 (24000/1001) FPS
Color space : YUV
Chroma subsampling : 4:2:0
Bit depth : 8 bits
Scan type : Progressive
Bits/(Pixel*Frame) : 0.241
Stream size : 8.17 GiB (89%)
Title : Affairs.of.State.2018.1080p.BluRay.x264.DTS-MT
Writing library : x264 core 152 r2851 ba24899
Encoding settings : cabac=1 / ref=4 / deblock=1:-3:-3 / analyse=0x3:0x133 / me=umh / subme=10 / psy=1 / psy_rd=1.00:0.00 / mixed_ref=1 / me_range=48 / chroma_me=1 / trellis=2 / 8x8dct=1 / cqm=0 / deadzone=21,11 / fast_pskip=0 / chroma_qp_offset=-2 / threads=12 / lookahead_threads=1 / sliced_threads=0 / nr=0 / decimate=0 / interlaced=0 / bluray_compat=0 / constrained_intra=0 / bframes=6 / b_pyramid=2 / b_adapt=2 / b_bias=0 / direct=3 / weightb=0 / open_gop=0 / weightp=2 / keyint=230 / keyint_min=22 / scenecut=40 / intra_refresh=0 / rc_lookahead=60 / rc=2pass / mbtree=1 / bitrate=12000 / ratetol=1.0 / qcomp=0.60 / qpmin=0 / qpmax=69 / qpstep=4 / cplxblur=20.0 / qblur=0.5 / vbv_maxrate=50000 / vbv_bufsize=50000 / nal_hrd=none / filler=0 / ip_ratio=1.40 / aq=1:1.00
Default : Yes
Forced : No

Audio
ID : 2
Format : DTS
Format/Info : Digital Theater Systems
Codec ID : A_DTS
Duration : 1 h 37 min
Bit rate mode : Constant
Bit rate : 1 509 kb/s
Channel(s) : 6 channels
Channel positions : Front: L C R, Side: L R, LFE
Sampling rate : 48.0 kHz
Frame rate : 93.750 FPS (512 SPF)
Bit depth : 24 bits
Compression mode : Lossy
Stream size : 1.03 GiB (11%)
Title : Affairs.of.State.2018.1080p.BluRay.x264.DTS-MT
Language : English
Default : Yes
Forced : No



Affairs.of.State.2018.1080p.BluRay.x264.DTS-MT[btbtt.me].torrent (92.49 KB, 下载次数: 113)


温馨提示

记得善用社区搜索功能,那里可能会有你想要的资源;论坛站内搜索

如果你有什么需要的资源可以去悬赏问答发帖,求助社区的网友,我们会在第一时间给你回复哦;资源求档

对于本社区如果你有任何好建议或者相关合作可以随时与我们联系,或者在反馈建议发帖,您的支持,是我们发展的最大动力;投诉建议

精彩评论17

限量版女汉子i 发表于 2018-8-6 08:28 来自手机 | 显示全部楼层
金币不够了回复有金币吗

温馨提示

记得善用社区搜索功能,那里可能会有你想要的资源;论坛站内搜索

如果你有什么需要的资源可以去悬赏问答发帖,求助社区的网友,我们会在第一时间给你回复哦;资源求档

对于本社区如果你有任何好建议或者相关合作可以随时与我们联系,或者在反馈建议发帖,您的支持,是我们发展的最大动力;投诉建议

脆弱让人放纵 发表于 2018-8-10 13:09 来自手机 | 显示全部楼层
太赞了!!!LZ!!!!

温馨提示

记得善用社区搜索功能,那里可能会有你想要的资源;论坛站内搜索

如果你有什么需要的资源可以去悬赏问答发帖,求助社区的网友,我们会在第一时间给你回复哦;资源求档

对于本社区如果你有任何好建议或者相关合作可以随时与我们联系,或者在反馈建议发帖,您的支持,是我们发展的最大动力;投诉建议

残花可以败柳 发表于 2018-8-12 00:44 | 显示全部楼层
太赞了!!!LZ!!!!

温馨提示

记得善用社区搜索功能,那里可能会有你想要的资源;论坛站内搜索

如果你有什么需要的资源可以去悬赏问答发帖,求助社区的网友,我们会在第一时间给你回复哦;资源求档

对于本社区如果你有任何好建议或者相关合作可以随时与我们联系,或者在反馈建议发帖,您的支持,是我们发展的最大动力;投诉建议

寂寞、变堕落 发表于 2018-8-13 10:19 来自手机 | 显示全部楼层
多谢分享

温馨提示

记得善用社区搜索功能,那里可能会有你想要的资源;论坛站内搜索

如果你有什么需要的资源可以去悬赏问答发帖,求助社区的网友,我们会在第一时间给你回复哦;资源求档

对于本社区如果你有任何好建议或者相关合作可以随时与我们联系,或者在反馈建议发帖,您的支持,是我们发展的最大动力;投诉建议

泪点是你 发表于 2018-8-14 20:49 | 显示全部楼层
资源可用!谢谢分享!

温馨提示

记得善用社区搜索功能,那里可能会有你想要的资源;论坛站内搜索

如果你有什么需要的资源可以去悬赏问答发帖,求助社区的网友,我们会在第一时间给你回复哦;资源求档

对于本社区如果你有任何好建议或者相关合作可以随时与我们联系,或者在反馈建议发帖,您的支持,是我们发展的最大动力;投诉建议

木兮木 发表于 2018-8-16 07:30 | 显示全部楼层
感谢分享啊:aixin:

温馨提示

记得善用社区搜索功能,那里可能会有你想要的资源;论坛站内搜索

如果你有什么需要的资源可以去悬赏问答发帖,求助社区的网友,我们会在第一时间给你回复哦;资源求档

对于本社区如果你有任何好建议或者相关合作可以随时与我们联系,或者在反馈建议发帖,您的支持,是我们发展的最大动力;投诉建议

随他吧 发表于 2018-8-18 21:09 来自手机 | 显示全部楼层
金币不够了回复有金币吗

温馨提示

记得善用社区搜索功能,那里可能会有你想要的资源;论坛站内搜索

如果你有什么需要的资源可以去悬赏问答发帖,求助社区的网友,我们会在第一时间给你回复哦;资源求档

对于本社区如果你有任何好建议或者相关合作可以随时与我们联系,或者在反馈建议发帖,您的支持,是我们发展的最大动力;投诉建议

铷裹鰅見妳 发表于 2018-8-20 06:43 | 显示全部楼层
<<[BT下载]朝政/公共事务 Affairs.of.State.2018.1080p.BluRay.x264.DTS-MT 9.2GB>>

温馨提示

记得善用社区搜索功能,那里可能会有你想要的资源;论坛站内搜索

如果你有什么需要的资源可以去悬赏问答发帖,求助社区的网友,我们会在第一时间给你回复哦;资源求档

对于本社区如果你有任何好建议或者相关合作可以随时与我们联系,或者在反馈建议发帖,您的支持,是我们发展的最大动力;投诉建议

梦想永遠在騷動 发表于 2018-8-21 14:51 | 显示全部楼层
感谢分享

温馨提示

记得善用社区搜索功能,那里可能会有你想要的资源;论坛站内搜索

如果你有什么需要的资源可以去悬赏问答发帖,求助社区的网友,我们会在第一时间给你回复哦;资源求档

对于本社区如果你有任何好建议或者相关合作可以随时与我们联系,或者在反馈建议发帖,您的支持,是我们发展的最大动力;投诉建议

无灵魂游走 发表于 2018-8-23 00:58 | 显示全部楼层
强烈感谢:qinzui:

温馨提示

记得善用社区搜索功能,那里可能会有你想要的资源;论坛站内搜索

如果你有什么需要的资源可以去悬赏问答发帖,求助社区的网友,我们会在第一时间给你回复哦;资源求档

对于本社区如果你有任何好建议或者相关合作可以随时与我们联系,或者在反馈建议发帖,您的支持,是我们发展的最大动力;投诉建议

本版积分规则
提醒:禁止复制他人回复等『恶意灌水』行为,违者重罚!

发表新帖
阅读排行更多+
快速回复 收藏帖子 返回列表
即刻加入,享受更多精彩。 会员登录[Login] 注册[Register]
资源分享,资源共享。
官方Facebok
Facebook.com/8ziyuan
意见反馈:[email protected]

关注我们的官方Twitter

Powered by Discuz! © 2016-2022 8ziyuan.com Inc. Protected by CloudFlare | 小黑屋 | 8资源分享论坛 | RSS订阅 | 手机版 | 联系我们