[动作] [玩命记忆][BD-MP4/2.38G][1080P][英语中字][豆瓣7.1惊悚动作大片]

  [复制链接]
唐章小小社区官方认证 发表于 2018-8-6 18:04 | 显示全部楼层 |阅读模式 打印 上一主题 下一主题

b1cb2183011056a52bba5fefe6f38729.jpg

◎译  名 玩命记忆

◎片  名 Unknown

◎年  代 2006

◎产  地 美国

◎类  别 犯罪/剧情/悬疑/惊悚

◎语  言 英语

◎上映日期 2006-11-01(美国)

◎IMDb评分  6.5/10 from 26,961 users

◎IMDb链接  http://www.imdb.com/title/tt0450340/

◎豆瓣评分 7.2/10 from 22,272 users

◎豆瓣链接 https://movie.douban.com/subject/1892848/

◎整理链接    http://www.lolzhidao.com

◎片  长 85 分钟

◎导  演 西蒙·布兰德 Simon Brand

◎主  演 格雷戈·金尼尔 Greg Kinnear

      布丽姬·穆娜 Bridget Moynahan

      詹姆斯·卡维泽 James Caviezel

      乔·潘托里亚诺 Joe Pantoliano

      巴里·佩珀 Barry Pepper


◎简  介


  在一座停产的密闭工厂里,五个男人从昏迷中转醒,但他们却想不起来自己身为何人,又为何在这里,唯一清楚的是,他们被困在这里,而且或被捆、或受伤,状态糟糕。与此同时,一起绑架案的赎金交接程序正在进行,歹徒依靠高明的事前准备成功拿到了钱并脱身,暗中监视的警察们迅速展开了追击。厂房里的五个男人在经过搜寻模糊的记忆片段与分析后,大致理清了当下的形势:五人中有两人是被绑架的某公司总裁寇斯与同事麦肯,其他三人则是绑匪,真正的寇斯与麦肯必须在收钱的绑匪返回前脱身,否则将面临撕票的危险,但是在身份无法确定的情况下,每个人想要保住自身安全又谈何容易?


Video
ID                                       : 1
Format                                   : AVC
Format/Info                              : Advanced Video Codec
Format profile                           : [email protected]
Format settings, CABAC                   : Yes
Format settings, ReFrames                : 5 frames
Codec ID                                 : V_MPEG4/ISO/AVC
Duration                                 : 1 h 25 min
Bit rate                                 : 10.4 Mb/s
Width                                    : 1 920 pixels
Height                                   : 816 pixels
Display aspect ratio                     : 2.35:1
Frame rate mode                          : Constant
Frame rate                               : 24.000 FPS
Color space                              : YUV
Chroma subsampling                       : 4:2:0
Bit depth                                : 8 bits
Scan type                                : Progressive
Bits/(Pixel*Frame)                       : 0.276
Stream size                              : 6.05 GiB (92%)
Writing library                          : x264 core 64 r995 2324c70
Encoding settings                        : cabac=1 / ref=5 / deblock=1:0:0 / analyse=0x3:0x113 / me=umh / subme=6 / psy_rd=1.0:0.0 / brdo=1 / mixed_ref=1 / me_range=16 / chroma_me=1 / trellis=1 / 8x8dct=1 / cqm=0 / deadzone=21,11 / chroma_qp_offset=-2 / threads=6 / nr=0 / decimate=1 / mbaff=0 / bframes=3 / b_pyramid=1 / b_adapt=1 / b_bias=0 / direct=1 / wpredb=1 / bime=1 / keyint=250 / keyint_min=25 / scenecut=40(pre) / rc=2pass / bitrate=10375 / ratetol=1.0 / qcomp=0.60 / qpmin=10 / qpmax=51 / qpstep=4 / cplxblur=20.0 / qblur=0.5 / ip_ratio=1.40 / pb_ratio=1.30 / aq=1:1.00
Language                                 : English
Default                                  : Yes
Forced                                   : No

Audio
ID                                       : 2
Format                                   : AC-3
Format/Info                              : Audio Coding 3
Format settings, Endianness              : Big
Codec ID                                 : A_AC3
Duration                                 : 1 h 25 min
Bit rate mode                            : Constant
Bit rate                                 : 640 kb/s
Channel(s)                               : 6 channels
Channel positions                        : Front: L C R, Side: L R, LFE
Sampling rate                            : 48.0 kHz
Frame rate                               : 31.250 FPS (1536 spf)
Bit depth                                : 16 bits
Compression mode                         : Lossy
Stream size                              : 390 MiB (6%)
Service kind                             : Complete Main
Default                                  : Yes
Forced                                   : No


57a2d3ea928fff7c394611df2cf84fb2.jpg cfa7add8bee14afd02fa9cbc8000d439.jpg
2667c698c626efdfc62b7078db7a2925.jpg 07a186a15701daefb1c33aff5a55e92b.jpg
c44ad0b2131020cac3930ce01244f045.jpg





玩命记忆.Unknown.2006.1080p.BluRay.x264-CiNEFiLE.torrent (12.71 KB, 下载次数: 94)

温馨提示

记得善用社区搜索功能,那里可能会有你想要的资源;论坛站内搜索

如果你有什么需要的资源可以去悬赏问答发帖,求助社区的网友,我们会在第一时间给你回复哦;资源求档

对于本社区如果你有任何好建议或者相关合作可以随时与我们联系,或者在反馈建议发帖,您的支持,是我们发展的最大动力;投诉建议

精彩评论22

請把小熊还给我 发表于 2018-8-6 18:25 来自手机 | 显示全部楼层
感谢分享啊

温馨提示

记得善用社区搜索功能,那里可能会有你想要的资源;论坛站内搜索

如果你有什么需要的资源可以去悬赏问答发帖,求助社区的网友,我们会在第一时间给你回复哦;资源求档

对于本社区如果你有任何好建议或者相关合作可以随时与我们联系,或者在反馈建议发帖,您的支持,是我们发展的最大动力;投诉建议

让痛无所 发表于 2018-8-9 12:42 | 显示全部楼层
多谢,谢谢楼主。

温馨提示

记得善用社区搜索功能,那里可能会有你想要的资源;论坛站内搜索

如果你有什么需要的资源可以去悬赏问答发帖,求助社区的网友,我们会在第一时间给你回复哦;资源求档

对于本社区如果你有任何好建议或者相关合作可以随时与我们联系,或者在反馈建议发帖,您的支持,是我们发展的最大动力;投诉建议

伴凯终老 发表于 2018-8-10 23:29 来自手机 | 显示全部楼层
找了好久终于找到了

温馨提示

记得善用社区搜索功能,那里可能会有你想要的资源;论坛站内搜索

如果你有什么需要的资源可以去悬赏问答发帖,求助社区的网友,我们会在第一时间给你回复哦;资源求档

对于本社区如果你有任何好建议或者相关合作可以随时与我们联系,或者在反馈建议发帖,您的支持,是我们发展的最大动力;投诉建议

泪点是你 发表于 2018-8-12 10:53 来自手机 | 显示全部楼层
前排支持 感谢分享

温馨提示

记得善用社区搜索功能,那里可能会有你想要的资源;论坛站内搜索

如果你有什么需要的资源可以去悬赏问答发帖,求助社区的网友,我们会在第一时间给你回复哦;资源求档

对于本社区如果你有任何好建议或者相关合作可以随时与我们联系,或者在反馈建议发帖,您的支持,是我们发展的最大动力;投诉建议

仦精灵 发表于 2018-8-13 19:48 | 显示全部楼层
金币不够了回复有金币吗

温馨提示

记得善用社区搜索功能,那里可能会有你想要的资源;论坛站内搜索

如果你有什么需要的资源可以去悬赏问答发帖,求助社区的网友,我们会在第一时间给你回复哦;资源求档

对于本社区如果你有任何好建议或者相关合作可以随时与我们联系,或者在反馈建议发帖,您的支持,是我们发展的最大动力;投诉建议

投君怀抱里 发表于 2018-8-15 05:55 来自手机 | 显示全部楼层
<<[玩命记忆][BD-MP4/2.38G][1080P][英语中字][豆瓣7.1惊悚动作大片]>>

温馨提示

记得善用社区搜索功能,那里可能会有你想要的资源;论坛站内搜索

如果你有什么需要的资源可以去悬赏问答发帖,求助社区的网友,我们会在第一时间给你回复哦;资源求档

对于本社区如果你有任何好建议或者相关合作可以随时与我们联系,或者在反馈建议发帖,您的支持,是我们发展的最大动力;投诉建议

寂寞、变堕落 发表于 2018-8-16 15:30 来自手机 | 显示全部楼层
金币不够了回复有金币吗

温馨提示

记得善用社区搜索功能,那里可能会有你想要的资源;论坛站内搜索

如果你有什么需要的资源可以去悬赏问答发帖,求助社区的网友,我们会在第一时间给你回复哦;资源求档

对于本社区如果你有任何好建议或者相关合作可以随时与我们联系,或者在反馈建议发帖,您的支持,是我们发展的最大动力;投诉建议

烟花易冷红颜薄 发表于 2018-8-17 22:22 来自手机 | 显示全部楼层
666,这个可以支持!

温馨提示

记得善用社区搜索功能,那里可能会有你想要的资源;论坛站内搜索

如果你有什么需要的资源可以去悬赏问答发帖,求助社区的网友,我们会在第一时间给你回复哦;资源求档

对于本社区如果你有任何好建议或者相关合作可以随时与我们联系,或者在反馈建议发帖,您的支持,是我们发展的最大动力;投诉建议

沙漠里的鱼 发表于 2018-8-19 05:05 来自手机 | 显示全部楼层
金币不够了回复有金币吗

温馨提示

记得善用社区搜索功能,那里可能会有你想要的资源;论坛站内搜索

如果你有什么需要的资源可以去悬赏问答发帖,求助社区的网友,我们会在第一时间给你回复哦;资源求档

对于本社区如果你有任何好建议或者相关合作可以随时与我们联系,或者在反馈建议发帖,您的支持,是我们发展的最大动力;投诉建议

本版积分规则
提醒:禁止复制他人回复等『恶意灌水』行为,违者重罚!

发布主题
阅读排行更多+
快速回复 收藏帖子 返回列表
即刻加入,享受更多精彩。 会员登录[Login] 注册[Register]
资源分享,资源共享。
官方Facebok
Facebook.com/8ziyuan
意见反馈:[email protected]

关注我们的官方Twitter

Powered by Discuz! © 2016-2020 8ziyuan.com Inc. Protected by CloudFlare | 小黑屋 | 8资源分享论坛 | RSS订阅 | 手机版 | 联系我们