请选择 进入手机版 | 继续访问电脑版

[喜剧片] [小矮人][BD-MKV/2.86GB][中文字幕][1080P][蓝光压制][DreamHD小组...

[复制链接]
nite_p007 发表于 2016-7-16 21:06 | 显示全部楼层 |阅读模式 打印 上一主题 下一主题
638107C276222FEF3948DBFBDE0F97B6.jpg

◎译  名 小矮人/小男人/小孩好黑
◎片  名 Little Man
◎年  代 2006
◎国  家 美国/加拿大
◎类  别 喜剧/犯罪
◎语  言 英语
◎上映日期 2006-07-14
◎IMDb评分  4.2/10 from 36,274 users
◎豆瓣评分 6.1/10 from 2,485 users
◎片  长 USA: 98 分钟/Argentina: 98 分钟
◎导  演 基伦·埃弗瑞·韦恩斯 Keenen Ivory Wayans
◎主  演 Mathew Ast
      杰弗里·巴拉德 Jeffrey Ballard
      艾利克斯·布诺斯町 Alex Borstein
      马龙·韦恩斯 Marlon Wayans
      肖恩·韦恩斯 Shawn Wayans
      凯丽·华盛顿 Kerry Washington

◎简  介

  狱中大哥——侏儒罪犯凯尔(马龙•韦恩斯 Marlon Wayans 饰)重获自由,小兄弟波西赶来接他,并带来一项价值十万美元的任务:盗窃女王钻石。波西与凯尔联手将钻石盗走,在撤退时不慎露出马脚,手忙脚乱的凯尔在超市里将钻石扔入了一对夫妻的提包。这对夫妻——丈夫戴洛(肖恩•韦恩斯 Shawn Wayans 饰)非常希望妻子瓦妮莎(凯丽•华盛顿 Kerry Washington 饰)能够生一个孩子,但后者忙于工作无暇顾及婴儿,戴洛颇感失落之余还要忍受岳父的奚落,愈发盼子心切。这边厢,失去了钻石的凯尔和波西无法向雇主交差,想出了化妆成婴儿混入戴洛家偷回钻石的办法。扮成弃婴的凯尔成功进入了戴洛家,但是以一个婴儿的身份盗出钻石,并不是件容易的事情……

◎获奖情况

  第16届MTV电影奖 (2007)
  MTV电影奖 最佳吻戏(提名) 布兰特妮·丹尼尔 / 马龙·韦恩斯

Video
ID                                       : 1
Format                                   : AVC
Format/Info                              : Advanced Video Codec
Format settings, CABAC                   : Yes
Format settings, ReFrames                : 4 frames
Codec ID                                 : V_MPEG4/ISO/AVC
Duration                                 : 1h 37mn
Bit rate                                 : 12.5 Mbps
Width                                    : 1 920 pixels
Height                                   : 1 040 pixels
Display aspect ratio                     : 1.85:1
Frame rate mode                          : Constant
Frame rate                               : 23.976 fps
Color space                              : YUV
Chroma subsampling                       : 4:2:0
Bit depth                                : 8 bits
Scan type                                : Progressive
Bits/(Pixel*Frame)                       : 0.261
Stream size                              : 8.33 GiB (87%)
Writing library                          : x264 core 114 r1913 5fd3dce
Encoding settings                        : cabac=1 / ref=4 / deblock=1:-3:-3 / analyse=0x3:0x113 / me=tesa / subme=10 / psy=1 / psy_rd=1.00:0.00 / mixed_ref=1 / me_range=24 / chroma_me=1 / trellis=2 / 8x8dct=1 / cqm=0 / deadzone=21,11 / fast_pskip=1 / chroma_qp_offset=-2 / threads=3 / sliced_threads=0 / nr=0 / decimate=1 / interlaced=0 / constrained_intra=0 / bframes=6 / b_pyramid=2 / b_adapt=2 / b_bias=0 / direct=1 / weightb=1 / open_gop=0 / weightp=2 / keyint=250 / keyint_min=23 / scenecut=40 / intra_refresh=0 / rc_lookahead=40 / rc=2pass / mbtree=1 / bitrate=12500 / ratetol=1.0 / qcomp=0.70 / qpmin=10 / qpmax=51 / qpstep=4 / cplxblur=20.0 / qblur=0.5 / vbv_maxrate=50000 / vbv_bufsize=50000 / nal_hrd=none / ip_ratio=1.40 / aq=1:1.00
Language                                 : English
Default                                  : Yes
Forced                                   : No

Audio
ID                                       : 2
Format                                   : DTS
Format/Info                              : Digital Theater Systems
Mode                                     : 16
Format settings, Endianness              : Big
Codec ID                                 : A_DTS
Duration                                 : 1h 37mn
Bit rate mode                            : Constant
Bit rate                                 : 1 509 Kbps
Channel(s)                               : 6 channels
Channel positions                        : Front: L C R, Side: L R, LFE
Sampling rate                            : 48.0 KHz
Bit depth                                : 16 bits
Compression mode                         : Lossy
Stream size                              : 1.03 GiB (11%)
Language                                 : English
Default                                  : Yes
Forced                                   : No

Text
ID                                       : 3
Format                                   : UTF-8
Codec ID                                 : S_TEXT/UTF8
Codec ID/Info                            : UTF-8 Plain Text
Language                                 : English
Default                                  : No
Forced                                   : No

[小矮人][BD-MKV2.86GB][中文字幕][1080P][蓝光压制][DreamHD小组... (1).jpg [小矮人][BD-MKV2.86GB][中文字幕][1080P][蓝光压制][DreamHD小组... (2).jpg [小矮人][BD-MKV2.86GB][中文字幕][1080P][蓝光压制][DreamHD小组... (3).jpg [小矮人][BD-MKV2.86GB][中文字幕][1080P][蓝光压制][DreamHD小组... (4).jpg [小矮人][BD-MKV2.86GB][中文字幕][1080P][蓝光压制][DreamHD小组... (5).jpg [小矮人][BD-MKV2.86GB][中文字幕][1080P][蓝光压制][DreamHD小组... (6).jpg

Little.Man.2006.BluRay.1080p.AAC.x264-DreamHD.torrent

10.55 KB, 下载次数: 1, 下载积分: 金币 -1

温馨提示

记得善用社区搜索功能,那里可能会有你想要的资源;论坛站内搜索

如果你有什么需要的资源可以去悬赏问答发帖,求助社区的网友,我们会在第一时间给你回复哦;资源求档

对于本社区如果你有任何好建议或者相关合作可以随时与我们联系,或者在反馈建议发帖,您的支持,是我们发展的最大动力;投诉建议

本版积分规则
提醒:禁止复制他人回复等『恶意灌水』行为,违者重罚!

发表新帖
阅读排行更多+
快速回复 收藏帖子 返回列表
即刻加入,享受更多精彩。 会员登录[Login] 注册[Register]
资源分享,资源共享。
官方Facebok
Facebook.com/8ziyuan
意见反馈:[email protected]

关注我们的官方Twitter

Powered by Discuz! © 2016-2024 8ziyuan.com Inc. Protected by CloudFlare | 小黑屋 | 8资源分享论坛 | RSS订阅 | 手机版 | 联系我们