请选择 进入手机版 | 继续访问电脑版

[科幻片] [BT下载]神奇动物:格林德沃之罪 2018.720p.WEB.h264-STRiFE 4.14GB

[复制链接]
佛罗里达社区官方认证 发表于 2019-2-15 17:37 | 显示全部楼层 |阅读模式 打印 上一主题 下一主题
f84ecd7dc671fa74ac3035845172dceb.jpg

◎译  名 神奇动物:格林德沃之罪 / Fantastic Beasts and Where to Find Them 2 / 怪兽与葛林戴华德之罪(港) / 怪兽与葛林戴华德的罪行(台) / 神奇动物2 / 神奇动物在哪里2 / 神奇动物在哪里2:格林德沃之罪
◎片  名 Fantastic Beasts: The Crimes of Grindelwald
◎年  代 2018
◎产  地 美国 / 英国
◎类  别 奇幻 / 冒险
◎语  言 英语
◎上映日期 2018-11-16(中国大陆/美国)
◎IMDb评分 6.8/10 from 118011 users
◎豆瓣评分 7.1/10 from 233576 users
◎BT之家整理 http://8btbtt.com/
◎片  长 134分钟
◎导  演 大卫·叶茨 David Yates
◎编  剧 J·K·罗琳 J.K. Rowling
◎主  演 埃迪·雷德梅恩 Eddie Redmayne
      凯瑟琳·沃特斯顿 Katherine Waterston
      约翰尼·德普 Johnny Depp
      裘德·洛 Jude Law
      埃兹拉·米勒 Ezra Miller
      丹·福勒 Dan Fogler
      艾莉森·萨多尔 Alison Sudol
      佐伊·克罗维兹 Zoë Kravitz
      卡勒姆·特纳 Callum Turner
      金秀贤 Soo-hyun Kim
      威廉·纳迪兰 William Nadylam
      凯文·格思里 Kevin Guthrie
      卡门·艾乔戈 Carmen Ejogo
      沃尔夫·罗特 Wolf Roth
      德里克·里德尔 Derek Riddell
      科内尔·约翰 Cornell John
      英格瓦·埃盖特·西古德松 Ingvar Eggert Sigurðsson
      波佩·科比-特曲 Poppy Corby-Tuech
      西蒙·米考克 Simon Meacock
      大卫·樱井 David Sakurai
      维多利亚·耶茨 Victoria Yeates
      奥拉维尔·达里·奥拉夫松 Ólafur Darri Ólafsson
      大卫·威尔莫特 David Wilmot
      艾德·高根 Ed Gaughan
      奥莉维亚·波皮卡 Olivia Popica
      Alfie Simmons
      菲奥娜·格拉斯科特 Fiona Glascott
      杰米·坎贝尔·鲍尔 Jamie Campbell Bower
      托比·瑞格波 Toby Regbo
      约书亚·谢伊 Joshua Shea
      布隆蒂斯·佐杜洛夫斯基 Brontis Jodorowsky
      杰西卡·威廉姆斯 Jessica Williams
      欧文·富尔 Olwen Fouere
      休·夸希 Hugh Quarshie
      塔希尔·布尔汉 Tahir Burhan
      迈克尔·科布 Michael Cobb
      萨比恩·克洛森 Sabine Crossen
      亚历珊德拉·福特 Alexandra Ford
      肖恩·吉斯灵厄姆 Sean Gislingham
      通恰伊·古奈什 Tuncay Gunes
      迈克尔·海登 Michael Haydon
      露丝·霍洛克斯 Ruth Horrocks
      泰·赫尔利 Ty Hurley
      纳西尔·贾玛 Nasir Jama
      卡米尔·雷米泽斯基 Kamil Lemieszewski
      迪诺·布加迪 Deano Bugatti


◎标  签 魔法世界 | 魔幻 | 魔法 | 英国 | 奇幻 | 2018 | 美国 | 冒险

◎简  介  

  虽然纽特(埃迪·雷德梅恩 Eddie Redmayne 饰)协助美国魔法部将邪恶的黑巫师格林德沃(约翰尼·德普 Johnny Depp 饰)捉拿归案,但最终格林德沃还是逃脱了禁锢,他来到了法国巴黎,一是为了集结信徒掀起革命,二十为了寻找同样藏匿在这里的克雷登斯(埃兹拉·米勒 Ezra Miller 饰),寄生在克雷登斯身上的默默然是帮助格林德沃实现野心的不可或缺的道具。
格林德沃的潜逃在整个魔法世界里都掀起了轩然大波,一时间草木皆兵。邓布利多(裘德·洛 Jude Law 饰)秘密的找到了纽特,希望他能够前往巴黎,先格林德沃一步找到克雷登斯。和纽特一起踏上巴黎之旅的,是麻鸡雅各布(丹·福格勒 Dan Fogler 饰),他此行的目的,是要找回先前因为吵架而来到巴黎投奔姐姐蒂娜(凯瑟琳·沃特森 Katherine Waterston 饰)的恋人奎妮(艾莉森·苏朵儿 Alison Sudol 饰)。

◎获奖情况  

  第72届英国电影学院奖(2019)
  电影奖 最佳艺术指导(提名) 斯图尔特·克莱格 / 安娜·平诺克
  电影奖 最佳特殊视觉效果(提名)

  第23届美国艺术指导工会奖(2019)
  电影奖 最佳幻想电影艺术指导(提名) 斯图尔特·克莱格

  第17届美国视觉效果协会奖(2019)
  最佳真人电影模拟动画效果(提名)

  第23届金卫星奖(2019)
  电影部门 最佳视觉效果(提名)
  电影部门 最佳美术指导(提名)
  电影部门 最佳服装设计(提名)

  第4届豆瓣电影年度榜单(2017)
  最值得期待的外语电影(提名)

Video
ID : 1
Format : AVC
Format/Info : Advanced Video Codec
Format profile : [email protected]
Format settings : 2 Ref Frames
Format settings, CABAC : No
Format settings, ReFrames : 2 frames
Codec ID : V_MPEG4/ISO/AVC
Duration : 2 h 13 min
Bit rate : 4 038 kb/s
Width : 1 280 pixels
Height : 532 pixels
Display aspect ratio : 2.40:1
Frame rate mode : Constant
Frame rate : 23.976 (24000/1001) FPS
Color space : YUV
Chroma subsampling : 4:2:0
Bit depth : 8 bits
Scan type : Progressive
Bits/(Pixel*Frame) : 0.247
Stream size : 3.77 GiB (91%)
Language : English
Default : Yes
Forced : No
Color range : Limited
Color primaries : BT.709
Transfer characteristics : BT.709
Matrix coefficients : BT.709

Audio
ID : 2
Format : AC-3
Format/Info : Audio Coding 3
Commercial name : Dolby Digital
Codec ID : A_AC3
Duration : 2 h 13 min
Bit rate mode : Constant
Bit rate : 384 kb/s
Channel(s) : 6 channels
Channel layout : L R C LFE Ls Rs
Sampling rate : 48.0 kHz
Frame rate : 31.250 FPS (1536 SPF)
Bit depth : 16 bits
Compression mode : Lossy
Stream size : 368 MiB (9%)
Language : English
Service kind : Complete Main
Default : Yes
Forced : Yes

Text #1
ID : 3
Format : UTF-8
Codec ID : S_TEXT/UTF8
Codec ID/Info : UTF-8 Plain Text
Duration : 2 h 12 min
Bit rate : 39 b/s
Count of elements : 1253
Stream size : 38.0 KiB (0%)
Title : PT-BR
Language : Portuguese
Default : No
Forced : No

Text #2
ID : 4
Format : UTF-8
Codec ID : S_TEXT/UTF8
Codec ID/Info : UTF-8 Plain Text
Duration : 2 h 12 min
Bit rate : 39 b/s
Count of elements : 1247
Stream size : 38.8 KiB (0%)
Language : Spanish
Default : No
Forced : No

Text #3
ID : 5
Format : UTF-8
Codec ID : S_TEXT/UTF8
Codec ID/Info : UTF-8 Plain Text
Duration : 2 h 12 min
Bit rate : 37 b/s
Count of elements : 1250
Stream size : 36.5 KiB (0%)
Language : French
Default : No
Forced : No

Text #4
ID : 6
Format : UTF-8
Codec ID : S_TEXT/UTF8
Codec ID/Info : UTF-8 Plain Text
Duration : 2 h 4 min
Bit rate : 52 b/s
Count of elements : 1249
Stream size : 48.0 KiB (0%)
Language : Russian
Default : No
Forced : No

Menu
00:00:00.000 : en:1
00:14:08.000 : en:2
00:21:40.000 : en:3
00:31:51.000 : en:4
00:41:42.000 : en:5
00:56:04.000 : en:6
01:05:57.000 : en:7
01:15:14.000 : en:8
01:24:48.000 : en:9
01:34:51.000 : en:10
01:43:09.000 : en:11
01:51:50.000 : en:12
02:00:33.000 : en:13
02:05:11.000 : en:14


Fantastic.Beasts.The.Crimes.of.Grindelwald.2018.720p.WEB.h264-STRiFE[8btbtt.com].torrent

42.06 KB, 下载次数: 61, 下载积分: 金币 -1

即日起,我们启动大专辑整理计划;就是整理歌手的专辑合集档发布,诸位有什么喜欢的歌手,想要我提前整理发布的,可以给我留言哦;

精彩评论10

温入骨 发表于 2019-2-15 18:24 来自手机 | 显示全部楼层
十分感谢

温馨提示

记得善用社区搜索功能,那里可能会有你想要的资源;论坛站内搜索

如果你有什么需要的资源可以去悬赏问答发帖,求助社区的网友,我们会在第一时间给你回复哦;资源求档

对于本社区如果你有任何好建议或者相关合作可以随时与我们联系,或者在反馈建议发帖,您的支持,是我们发展的最大动力;投诉建议

只剩淡漠 发表于 2019-2-17 03:27 来自手机 | 显示全部楼层
找了好久终于找到了

温馨提示

记得善用社区搜索功能,那里可能会有你想要的资源;论坛站内搜索

如果你有什么需要的资源可以去悬赏问答发帖,求助社区的网友,我们会在第一时间给你回复哦;资源求档

对于本社区如果你有任何好建议或者相关合作可以随时与我们联系,或者在反馈建议发帖,您的支持,是我们发展的最大动力;投诉建议

晚眉妆 发表于 2019-2-18 14:46 来自手机 | 显示全部楼层
感谢分享啊:aixin:

温馨提示

记得善用社区搜索功能,那里可能会有你想要的资源;论坛站内搜索

如果你有什么需要的资源可以去悬赏问答发帖,求助社区的网友,我们会在第一时间给你回复哦;资源求档

对于本社区如果你有任何好建议或者相关合作可以随时与我们联系,或者在反馈建议发帖,您的支持,是我们发展的最大动力;投诉建议

祭奠‘这羁绊 发表于 2019-2-23 02:14 来自手机 | 显示全部楼层
强烈感谢

温馨提示

记得善用社区搜索功能,那里可能会有你想要的资源;论坛站内搜索

如果你有什么需要的资源可以去悬赏问答发帖,求助社区的网友,我们会在第一时间给你回复哦;资源求档

对于本社区如果你有任何好建议或者相关合作可以随时与我们联系,或者在反馈建议发帖,您的支持,是我们发展的最大动力;投诉建议

竹排江中游 发表于 2019-2-24 18:56 | 显示全部楼层
太赞了!!!LZ!!!!

温馨提示

记得善用社区搜索功能,那里可能会有你想要的资源;论坛站内搜索

如果你有什么需要的资源可以去悬赏问答发帖,求助社区的网友,我们会在第一时间给你回复哦;资源求档

对于本社区如果你有任何好建议或者相关合作可以随时与我们联系,或者在反馈建议发帖,您的支持,是我们发展的最大动力;投诉建议

烟花易冷红颜薄 发表于 2019-2-27 22:59 | 显示全部楼层
金币不够了回复有金币吗

温馨提示

记得善用社区搜索功能,那里可能会有你想要的资源;论坛站内搜索

如果你有什么需要的资源可以去悬赏问答发帖,求助社区的网友,我们会在第一时间给你回复哦;资源求档

对于本社区如果你有任何好建议或者相关合作可以随时与我们联系,或者在反馈建议发帖,您的支持,是我们发展的最大动力;投诉建议

活著就是折騰 发表于 2019-3-1 11:27 | 显示全部楼层
十分感谢

温馨提示

记得善用社区搜索功能,那里可能会有你想要的资源;论坛站内搜索

如果你有什么需要的资源可以去悬赏问答发帖,求助社区的网友,我们会在第一时间给你回复哦;资源求档

对于本社区如果你有任何好建议或者相关合作可以随时与我们联系,或者在反馈建议发帖,您的支持,是我们发展的最大动力;投诉建议

你太碍眼 发表于 2019-3-3 07:03 | 显示全部楼层
前排支持 感谢分享

温馨提示

记得善用社区搜索功能,那里可能会有你想要的资源;论坛站内搜索

如果你有什么需要的资源可以去悬赏问答发帖,求助社区的网友,我们会在第一时间给你回复哦;资源求档

对于本社区如果你有任何好建议或者相关合作可以随时与我们联系,或者在反馈建议发帖,您的支持,是我们发展的最大动力;投诉建议

◆沧桑 发表于 2019-3-7 01:10 | 显示全部楼层
找了好久终于找到了

温馨提示

记得善用社区搜索功能,那里可能会有你想要的资源;论坛站内搜索

如果你有什么需要的资源可以去悬赏问答发帖,求助社区的网友,我们会在第一时间给你回复哦;资源求档

对于本社区如果你有任何好建议或者相关合作可以随时与我们联系,或者在反馈建议发帖,您的支持,是我们发展的最大动力;投诉建议

oぃ輸在喜欢妳 发表于 2019-3-11 06:22 | 显示全部楼层
多谢分享

温馨提示

记得善用社区搜索功能,那里可能会有你想要的资源;论坛站内搜索

如果你有什么需要的资源可以去悬赏问答发帖,求助社区的网友,我们会在第一时间给你回复哦;资源求档

对于本社区如果你有任何好建议或者相关合作可以随时与我们联系,或者在反馈建议发帖,您的支持,是我们发展的最大动力;投诉建议

本版积分规则
提醒:禁止复制他人回复等『恶意灌水』行为,违者重罚!

发表新帖
阅读排行更多+
快速回复 收藏帖子 返回列表
即刻加入,享受更多精彩。 会员登录[Login] 注册[Register]
资源分享,资源共享。
官方Facebok
Facebook.com/8ziyuan
意见反馈:[email protected]

关注我们的官方Twitter

Powered by Discuz! © 2016-2022 8ziyuan.com Inc. Protected by CloudFlare | 小黑屋 | 8资源分享论坛 | RSS订阅 | 手机版 | 联系我们
GMT+8, 2023-2-3 18:48, Processed in 0.215450 second(s), 14 queries , Gzip On, MemCache On.