请选择 进入手机版 | 继续访问电脑版

[动作片] [BT下载]猖獗/尸杀帝国 Rampant.2018.720p.BluRay.x264.DTS-MT 5GB

  [复制链接]
佛罗里达 发表于 2019-2-22 12:27 | 显示全部楼层 |阅读模式 打印 上一主题 下一主题
a4d9ee66dbe5ddc4f7cbc477b89f568d.jpg

◎译  名 猖獗 / Rampant / 尸杀帝国(港) / 尸落之城(台)
◎片  名 창궐
◎年  代 2018
◎产  地 韩国
◎类  别 动作 / 恐怖
◎语  言 韩语
◎上映日期 2018-10-25(韩国)
◎IMDb评分 6.3/10 from 654 users
◎豆瓣评分 5.7/10 from 4966 users
◎BT之家整理 http://8btbtt.com/
◎片  长 121分钟
◎导  演 金成勋 Kim Sung-hoon
◎编  剧 黄祖润 Jo-yun Hwang / 元新渊 Shin-yeon Won / 黄肇允 Hwang Jo Yoon
◎主  演 玄彬 Hyun Bin
      赵宇镇 Cho WooJin
      张东健 Dong-gun Jang
      金义城 Eui-sung Kim
      李善彬 Sun-bin Lee
      郑满植 Man-shik Jeong
      徐智慧 Ji-hye Seo
      赵达焕 Dal-hwan Jo
      金太祐 Tae-woo Kim
      许成泰 Seong-tae Heo
      朴镇宇 Park Jin-woo
      韩智恩 Han Ji Eun
      许俊硕 Jun-seok Heo
      白秀章 Soo-Jang Baek
      鄭惟安  Jung Yoo-ahn



◎简  介  

  《猖獗》讲述了古代王子带兵与名为“夜鬼”的僵尸战斗,拯救国家的故事,玄彬饰演了在国外当十多年人质后回国的王子,而张东健则饰演了手握兵权,试图进行改革的朝廷重臣。

Video
ID : 1
Format : AVC
Format/Info : Advanced Video Codec
Format profile : [email protected]
Format settings : CABAC / 12 Ref Frames
Format settings, CABAC : Yes
Format settings, ReFrames : 12 frames
Codec ID : V_MPEG4/ISO/AVC
Duration : 2 h 1 min
Bit rate : 4 379 kb/s
Width : 1 280 pixels
Height : 538 pixels
Display aspect ratio : 2.40:1
Frame rate mode : Constant
Frame rate : 24.000 FPS
Color space : YUV
Chroma subsampling : 4:2:0
Bit depth : 8 bits
Scan type : Progressive
Bits/(Pixel*Frame) : 0.265
Stream size : 3.72 GiB (74%)
Writing library : x264 core 157 r2938 2b00a84 [email protected] Mod
Encoding settings : cabac=1 / ref=12 / deblock=1:-3:-3 / analyse=0x3:0x133 / me=umh / subme=10 / psy=1 / psy_rd=1.05:0.00 / mixed_ref=1 / me_range=32 / chroma_me=1 / trellis=2 / 8x8dct=1 / cqm=0 / deadzone=21,11 / fast_pskip=0 / chroma_qp_offset=-2 / threads=12 / lookahead_threads=2 / sliced_threads=0 / nr=0 / decimate=0 / interlaced=0 / bluray_compat=0 / constrained_intra=0 / bframes=8 / b_pyramid=2 / b_adapt=2 / b_bias=0 / direct=3 / weightb=1 / open_gop=0 / weightp=2 / keyint=250 / keyint_min=24 / scenecut=40 / intra_refresh=0 / rc_lookahead=250 / rc=crf / mbtree=0 / crf=17.5 / qcomp=0.60 / qpmin=0 / qpmax=69 / qpstep=4 / vbv_maxrate=62500 / vbv_bufsize=78125 / crf_max=0.0 / nal_hrd=none / filler=0 / ip_ratio=1.30 / pb_ratio=1.20 / aq=3:0.80
Language : English
Default : Yes
Forced : No
Color range : Limited
Color primaries : BT.709
Matrix coefficients : BT.709

Audio
ID : 2
Format : DTS
Format/Info : Digital Theater Systems
Codec ID : A_DTS
Duration : 2 h 1 min
Bit rate mode : Constant
Bit rate : 1 509 kb/s
Channel(s) : 6 channels
Channel layout : C L R Ls Rs LFE
Sampling rate : 48.0 kHz
Frame rate : 93.750 FPS (512 SPF)
Bit depth : 24 bits
Compression mode : Lossy
Stream size : 1.28 GiB (26%)
Language : Korean
Default : Yes
Forced : No

Text
ID : 3
Format : UTF-8
Codec ID : S_TEXT/UTF8
Codec ID/Info : UTF-8 Plain Text
Duration : 1 h 55 min
Bit rate : 32 b/s
Count of elements : 1042
Stream size : 27.8 KiB (0%)
Language : English
Default : Yes
Forced : Yes

Menu
00:00:00.000 : en:Chapter 01
00:08:16.167 : en:Chapter 02
00:16:08.167 : en:Chapter 03
00:26:33.917 : en:Chapter 04
00:35:54.833 : en:Chapter 05
00:46:54.000 : en:Chapter 06
00:53:57.167 : en:Chapter 07
01:02:12.083 : en:Chapter 08
01:12:42.542 : en:Chapter 09
01:20:40.083 : en:Chapter 10
01:27:05.208 : en:Chapter 11
01:41:45.375 : en:Chapter 12
01:50:28.375 : en:Chapter 13
01:57:48.792 : en:Chapter 14




Rampant.2018.KOREAN.720p.BluRay.x264.DTS-MT[92btbtt.com].torrent

25.56 KB, 下载次数: 55


【扫码访问手机版】

温馨提示

记得善用社区搜索功能,那里可能会有你想要的资源;论坛站内搜索

如果你有什么需要的资源可以去资源求档发帖,求助社区的网友,我们会在第一时间给你回复哦;资源求档

对于本社区如果你有任何好建议或者相关合作可以随时与我们联系,或者在投诉建议发帖,您的支持,是我们发展的最大动力;投诉建议

精彩评论11

颓废ヤ心碎ゞ 发表于 2019-2-22 15:09 | 显示全部楼层
<<[BT下载]猖獗/尸杀帝国 Rampant.2018.720p.BluRay.x264.DTS-MT 5GB>>

温馨提示

记得善用社区搜索功能,那里可能会有你想要的资源;论坛站内搜索

如果你有什么需要的资源可以去资源求档发帖,求助社区的网友,我们会在第一时间给你回复哦;资源求档

对于本社区如果你有任何好建议或者相关合作可以随时与我们联系,或者在投诉建议发帖,您的支持,是我们发展的最大动力;投诉建议

螎在ぺ長風裏 发表于 2019-2-24 05:39 来自手机 | 显示全部楼层
谢谢楼主分享

温馨提示

记得善用社区搜索功能,那里可能会有你想要的资源;论坛站内搜索

如果你有什么需要的资源可以去资源求档发帖,求助社区的网友,我们会在第一时间给你回复哦;资源求档

对于本社区如果你有任何好建议或者相关合作可以随时与我们联系,或者在投诉建议发帖,您的支持,是我们发展的最大动力;投诉建议

巷弄 发表于 2019-2-25 21:01 | 显示全部楼层
金币不够了回复有金币吗

温馨提示

记得善用社区搜索功能,那里可能会有你想要的资源;论坛站内搜索

如果你有什么需要的资源可以去资源求档发帖,求助社区的网友,我们会在第一时间给你回复哦;资源求档

对于本社区如果你有任何好建议或者相关合作可以随时与我们联系,或者在投诉建议发帖,您的支持,是我们发展的最大动力;投诉建议

寂寞、变堕落 发表于 2019-2-27 11:04 | 显示全部楼层
666,这个可以支持!

温馨提示

记得善用社区搜索功能,那里可能会有你想要的资源;论坛站内搜索

如果你有什么需要的资源可以去资源求档发帖,求助社区的网友,我们会在第一时间给你回复哦;资源求档

对于本社区如果你有任何好建议或者相关合作可以随时与我们联系,或者在投诉建议发帖,您的支持,是我们发展的最大动力;投诉建议

作践自己 发表于 2019-2-28 23:17 | 显示全部楼层
太赞了!!!LZ!!!!

温馨提示

记得善用社区搜索功能,那里可能会有你想要的资源;论坛站内搜索

如果你有什么需要的资源可以去资源求档发帖,求助社区的网友,我们会在第一时间给你回复哦;资源求档

对于本社区如果你有任何好建议或者相关合作可以随时与我们联系,或者在投诉建议发帖,您的支持,是我们发展的最大动力;投诉建议

泪点是你 发表于 2019-3-2 17:05 | 显示全部楼层
多谢分享

温馨提示

记得善用社区搜索功能,那里可能会有你想要的资源;论坛站内搜索

如果你有什么需要的资源可以去资源求档发帖,求助社区的网友,我们会在第一时间给你回复哦;资源求档

对于本社区如果你有任何好建议或者相关合作可以随时与我们联系,或者在投诉建议发帖,您的支持,是我们发展的最大动力;投诉建议

死挣扎! 发表于 2019-3-4 12:39 来自手机 | 显示全部楼层
多谢分享

温馨提示

记得善用社区搜索功能,那里可能会有你想要的资源;论坛站内搜索

如果你有什么需要的资源可以去资源求档发帖,求助社区的网友,我们会在第一时间给你回复哦;资源求档

对于本社区如果你有任何好建议或者相关合作可以随时与我们联系,或者在投诉建议发帖,您的支持,是我们发展的最大动力;投诉建议

◆沧桑 发表于 2019-3-6 10:42 | 显示全部楼层
太赞了!!!LZ!!!!

温馨提示

记得善用社区搜索功能,那里可能会有你想要的资源;论坛站内搜索

如果你有什么需要的资源可以去资源求档发帖,求助社区的网友,我们会在第一时间给你回复哦;资源求档

对于本社区如果你有任何好建议或者相关合作可以随时与我们联系,或者在投诉建议发帖,您的支持,是我们发展的最大动力;投诉建议

晚眉妆 发表于 2019-3-8 11:10 来自手机 | 显示全部楼层
<<[BT下载]猖獗/尸杀帝国 Rampant.2018.720p.BluRay.x264.DTS-MT 5GB>>

温馨提示

记得善用社区搜索功能,那里可能会有你想要的资源;论坛站内搜索

如果你有什么需要的资源可以去资源求档发帖,求助社区的网友,我们会在第一时间给你回复哦;资源求档

对于本社区如果你有任何好建议或者相关合作可以随时与我们联系,或者在投诉建议发帖,您的支持,是我们发展的最大动力;投诉建议

您需要登录后才可以回帖 登录 | 注册会员[Register]  

本版积分规则

发布主题
阅读排行更多+
快速回复 收藏帖子 返回列表
注册会员,尊享海量资源免费资源。 会员登录[Login] 注册[Register]
资源分享,资源共享。
官方Twitter
Twitter.com/8ziyuan
意见反馈:[email protected]

关注我们的官方Twitter

Powered by Discuz! © 2016-2019 8ziyuan.com Inc. Protected by CloudFlare | 小黑屋 | 8资源分享论坛 | RSS订阅 | 手机版 | 联系我们