[爱情] 性爱巴士.Shortbus.2006.US.UNRATED.BluRay.1920x1080p.x264.DTS-KOOK.[中英双字] 8.16G

   关闭 [复制链接]
唐章小小社区官方认证 发表于 2019-4-23 13:04 | 显示全部楼层 |阅读模式 打印 上一主题 下一主题
性爱巴士.Shortbus.2006.US.UNRATED.BluRay.1920x1080p.x264.DTS-KOOK.[中英双字] 8.16GB
无广告,无水印,欢迎转载
独家中英双字幕
不定时做种,保证出种,请耐心等待.

9ed9caa8ddd49d6508cfa87cfad90fe5.jpg
※※※※※※※ 影片信息 ※※※※※※※

◎片   名 Shortbus
◎译   名 性爱巴士
◎年   代 2006
◎国   家 美国
◎类   别 剧情 / 爱情 / 情色
◎语   言 英语
◎上映日 期 2006-05-20(戛纳电影节)
◎字   幕 中英双字/繁英双字/简体字幕/繁体字幕/英文字幕
◎IMDB 评分  6.5/10 from 30292 users
◎豆瓣 评分  7.1/10 from 18991 users
◎视频尺 寸  1920x1080p
◎片   长 1.41.24
◎导   演 约翰·卡梅隆·米切尔
◎编   剧  约翰·卡梅隆·米切尔
◎主   演 李素英 / 保罗·道森 / 林赛·比米什 / PJ DeBoy / 拉法埃尔·巴尔克 / 杰·布拉南




◎简  介

  在繁华之都纽约,有一间名为短巴士(Short Bus)的俱乐部,肆意享受人生的青年男女云集于此,体验着彼此身体所带给自己的莫大快感。索非娅(Sook-Yin Lee 饰)是一名亚裔性临床专家,虽然和丈夫罗伯(Raphael Barker 饰)的婚姻生活无比幸福,但是她从未达到过高潮,为此索非娅苦恼不已;詹姆斯(Paul Dawson 饰)与杰米(PJ DeBoy 饰)是一对同性恋人,平淡的生活让詹姆斯渴望新鲜和刺激,这时,偷窥他们的加勒伯(Peter Stickles 饰)介入进来……
  本片荣获2006年雅典国际电影节观众奖;2006年西班牙西洪(Gijón)国际电影节最佳艺术指导和最佳剧本奖;2007年独立精神奖最佳制片奖;2006年苏黎世电影节最佳影片奖。


   《巴士》不仅是电影手法的实验,也是导演米切尔尔对美国的批评。片中性爱场面均真枪实弹,毫不保留,在戛纳、多伦多、伦敦各大影展中放映,令观众瞠目结舌。
    在我们第一次来到短巴士俱乐部的时候,可以看到有一位俱乐部的会员从盘子里拿了一些东西吃,这位客人是电影《诅咒》(Tarnation 2003)的导演乔纳森·卡乌特(Jonathan Caouette)。《性爱巴士》的导演约翰·卡梅隆·米切尔在《诅咒》中曾经担任过执行制片。
      在试镜和选角阶段,任何有意向的演员都要求寄一份十分钟的录像带,是讲述关于他自己人生中最难忘的一次性经历。最终导演收到大约五百盒磁带。
拍摄放荡场景的过程中,为了让演员们表现自如,导演和摄影师们都是全裸上阵的



※※※※※※※ 参数信息 ※※※※※※※

General
Unique ID                      : 218834088244710936141429806943728851136 (0xA4A1E98F228F4E0F92E75F602C0858C0)

Format                         : Matroska
Format version                 : Version 4 / Version 2
File size                      : 8.17 GiB
Duration                       : 1h 41mn
Overall bit rate               : 11.5 Mbps
Movie name                     : KOOK
Encoded date                   : UTC 2019-04-14 01:04:41
Writing application            : mkvmerge v7.7.0 ('Six Voices') 32bit built on Feb 28 2015 23:23:00
Writing library                : libebml v1.3.1 + libmatroska v1.4.2
Attachements                   : STKAITI.TTF / fzgljw.ttf / 正式海报 美国1.jpg

Video
ID                             : 1
Format                         : AVC
Format/Info                    : Advanced Video Codec
Format profile                 : [email protected]
Format settings, CABAC         : Yes
Format settings, ReFrames      : 7 frames
Codec ID                       : V_MPEG4/ISO/AVC
Duration                       : 1h 41mn
Bit rate                       : 10 000 Kbps
Width                          : 1 920 pixels
Height                         : 1 080 pixels
Display aspect ratio           : 16:9
Frame rate mode                : Constant
Frame rate                     : 23.976 (24000/1001) fps
Color space                    : YUV
Chroma subsampling             : 4:2:0
Bit depth                      : 8 bits
Scan type                      : Progressive
Bits/(Pixel*Frame)             : 0.201
Stream size                    : 7.08 GiB (87%)
Writing library                : x264 core 148 r2705 3f5ed56
Encoding settings              : cabac=1 / ref=7 / deblock=1:0:0 / analyse=0x3:0x133 / me=tesa / subme=7 / psy=1 / psy_rd=1.00:0.00 / mixed_ref=0 / me_range=16 / chroma_me=1 / trellis=2 / 8x8dct=1 / cqm=0 / deadzone=21,11 / fast_pskip=1 / chroma_qp_offset=-2 / threads=8 / lookahead_threads=4 / sliced_threads=0 / nr=0 / decimate=1 / interlaced=0 / bluray_compat=0 / constrained_intra=0 / bframes=10 / b_pyramid=0 / b_adapt=2 / b_bias=0 / direct=3 / weightb=1 / open_gop=0 / weightp=2 / keyint=240 / keyint_min=24 / scenecut=40 / intra_refresh=0 / rc_lookahead=60 / rc=2pass / mbtree=1 / bitrate=10000 / ratetol=1.0 / qcomp=0.60 / qpmin=0 / qpmax=69 / qpstep=4 / cplxblur=20.0 / qblur=0.5 / vbv_maxrate=62500 / vbv_bufsize=62500 / nal_hrd=none / filler=0 / ip_ratio=1.40 / aq=1:1.00
Language                       : English
Default                        : Yes
Forced                         : No

Audio
ID                             : 2
Format                         : DTS
Format/Info                    : Digital Theater Systems
Mode                           : 16
Format settings, Endianness    : Big
Codec ID                       : A_DTS
Duration                       : 1h 41mn
Bit rate mode                  : Constant
Bit rate                       : 1 509 Kbps
Channel(s)                     : 6 channels
Channel positions              : Front: L C R, Side: L R, LFE
Sampling rate                  : 48.0 KHz
Frame rate                     : 93.750 fps (512 spf)
Bit depth                      : 24 bits
Compression mode               : Lossy
Stream size                    : 1.07 GiB (13%)
Language                       : English
Default                        : Yes
Forced                         : No

Text #1
ID                             : 3
Format                         : ASS
Codec ID                       : S_TEXT/ASS
Codec ID/Info                  : Advanced Sub Station Alpha
Duration                       : 1h 35mn
Bit rate                       : 192 bps
Count of elements              : 922
Compression mode               : Lossless
Stream size                    : 136 KiB (0%)
Title                          : 简英双字
Language                       : Chinese
Default                        : Yes
Forced                         : No

Text #2
ID                             : 4
Format                         : ASS
Codec ID                       : S_TEXT/ASS
Codec ID/Info                  : Advanced Sub Station Alpha
Duration                       : 1h 35mn
Bit rate                       : 192 bps
Count of elements              : 922
Compression mode               : Lossless
Stream size                    : 136 KiB (0%)
Title                          : 繁英双字
Language                       : Chinese
Default                        : No
Forced                         : No

Text #3
ID                             : 5
Format                         : ASS
Codec ID                       : S_TEXT/ASS
Codec ID/Info                  : Advanced Sub Station Alpha
Duration                       : 1h 35mn
Bit rate                       : 91 bps
Count of elements              : 922
Compression mode               : Lossless
Stream size                    : 64.4 KiB (0%)
Title                          : 简体字幕
Language                       : Chinese
Default                        : No
Forced                         : No

Text #4
ID                             : 6
Format                         : ASS
Codec ID                       : S_TEXT/ASS
Codec ID/Info                  : Advanced Sub Station Alpha
Duration                       : 1h 35mn
Bit rate                       : 91 bps
Count of elements              : 922
Compression mode               : Lossless
Stream size                    : 64.4 KiB (0%)
Title                          : 繁体字幕
Language                       : Chinese
Default                        : No
Forced                         : No

Text #5
ID                             : 7
Format                         : ASS
Codec ID                       : S_TEXT/ASS
Codec ID/Info                  : Advanced Sub Station Alpha
Duration                       : 1h 35mn
Bit rate                       : 144 bps
Count of elements              : 888
Compression mode               : Lossless
Stream size                    : 101 KiB (0%)
Title                          : 英文字幕
Language                       : English
Default                        : No
Forced                         : No

Menu
00:00:00.000                   : en:00:00:00.000
00:07:07.135                   : en:00:07:07.135
00:15:53.369                   : en:00:15:53.369
00:23:16.895                   : en:00:23:16.895
00:29:27.474                   : en:00:29:27.474
00:33:50.528                   : en:00:33:50.528
00:39:57.103                   : en:00:39:57.103
00:45:15.713                   : en:00:45:15.713
00:51:09.191                   : en:00:51:09.191
00:57:17.351                   : en:00:57:17.351
01:03:47.157                   : en:01:03:47.157
01:08:28.730                   : en:01:08:28.730
01:14:30.383                   : en:01:14:30.383
01:20:17.688                   : en:01:20:17.688
01:26:14.878                   : en:01:26:14.878
01:35:24.177                   : en:01:35:24.177


689347d6c8f20e2e0bea8101bea722a4.jpg



性爱巴士.Shortbus.2006.US.UNRATED.BluRay.1920x1080p.x264.DTS-KOOK.[中英双字].tor.torrent

87.61 KB, 下载次数: 150, 下载积分: 金币 -1

温馨提示

记得善用社区搜索功能,那里可能会有你想要的资源;论坛站内搜索

如果你有什么需要的资源可以去悬赏问答发帖,求助社区的网友,我们会在第一时间给你回复哦;资源求档

对于本社区如果你有任何好建议或者相关合作可以随时与我们联系,或者在反馈建议发帖,您的支持,是我们发展的最大动力;投诉建议

精彩评论24

〃獨白式分手 发表于 2019-4-23 23:30 来自手机 | 显示全部楼层
强烈感谢:qinzui:

温馨提示

记得善用社区搜索功能,那里可能会有你想要的资源;论坛站内搜索

如果你有什么需要的资源可以去悬赏问答发帖,求助社区的网友,我们会在第一时间给你回复哦;资源求档

对于本社区如果你有任何好建议或者相关合作可以随时与我们联系,或者在反馈建议发帖,您的支持,是我们发展的最大动力;投诉建议

温入骨 发表于 2019-4-24 09:56 | 显示全部楼层
太赞了!!!LZ!!!!

温馨提示

记得善用社区搜索功能,那里可能会有你想要的资源;论坛站内搜索

如果你有什么需要的资源可以去悬赏问答发帖,求助社区的网友,我们会在第一时间给你回复哦;资源求档

对于本社区如果你有任何好建议或者相关合作可以随时与我们联系,或者在反馈建议发帖,您的支持,是我们发展的最大动力;投诉建议

恐惧散播器┾♂ 发表于 2019-4-24 19:53 来自手机 | 显示全部楼层
十分感谢

温馨提示

记得善用社区搜索功能,那里可能会有你想要的资源;论坛站内搜索

如果你有什么需要的资源可以去悬赏问答发帖,求助社区的网友,我们会在第一时间给你回复哦;资源求档

对于本社区如果你有任何好建议或者相关合作可以随时与我们联系,或者在反馈建议发帖,您的支持,是我们发展的最大动力;投诉建议

梦想永遠在騷動 发表于 2019-4-25 07:25 | 显示全部楼层
太赞了!!!LZ!!!!

温馨提示

记得善用社区搜索功能,那里可能会有你想要的资源;论坛站内搜索

如果你有什么需要的资源可以去悬赏问答发帖,求助社区的网友,我们会在第一时间给你回复哦;资源求档

对于本社区如果你有任何好建议或者相关合作可以随时与我们联系,或者在反馈建议发帖,您的支持,是我们发展的最大动力;投诉建议

寂寞、变堕落 发表于 2019-4-26 06:08 | 显示全部楼层
多谢分享

温馨提示

记得善用社区搜索功能,那里可能会有你想要的资源;论坛站内搜索

如果你有什么需要的资源可以去悬赏问答发帖,求助社区的网友,我们会在第一时间给你回复哦;资源求档

对于本社区如果你有任何好建议或者相关合作可以随时与我们联系,或者在反馈建议发帖,您的支持,是我们发展的最大动力;投诉建议

随他吧 发表于 2019-4-26 17:21 | 显示全部楼层
感谢分享

温馨提示

记得善用社区搜索功能,那里可能会有你想要的资源;论坛站内搜索

如果你有什么需要的资源可以去悬赏问答发帖,求助社区的网友,我们会在第一时间给你回复哦;资源求档

对于本社区如果你有任何好建议或者相关合作可以随时与我们联系,或者在反馈建议发帖,您的支持,是我们发展的最大动力;投诉建议

烟久 发表于 2019-4-27 17:25 来自手机 | 显示全部楼层
找了好久终于找到了

温馨提示

记得善用社区搜索功能,那里可能会有你想要的资源;论坛站内搜索

如果你有什么需要的资源可以去悬赏问答发帖,求助社区的网友,我们会在第一时间给你回复哦;资源求档

对于本社区如果你有任何好建议或者相关合作可以随时与我们联系,或者在反馈建议发帖,您的支持,是我们发展的最大动力;投诉建议

苝海莈冇猫 发表于 2019-4-28 08:51 | 显示全部楼层
资源可用!谢谢分享!

温馨提示

记得善用社区搜索功能,那里可能会有你想要的资源;论坛站内搜索

如果你有什么需要的资源可以去悬赏问答发帖,求助社区的网友,我们会在第一时间给你回复哦;资源求档

对于本社区如果你有任何好建议或者相关合作可以随时与我们联系,或者在反馈建议发帖,您的支持,是我们发展的最大动力;投诉建议

一切、虚伪 发表于 2019-4-29 05:54 | 显示全部楼层
多谢,谢谢楼主。

温馨提示

记得善用社区搜索功能,那里可能会有你想要的资源;论坛站内搜索

如果你有什么需要的资源可以去悬赏问答发帖,求助社区的网友,我们会在第一时间给你回复哦;资源求档

对于本社区如果你有任何好建议或者相关合作可以随时与我们联系,或者在反馈建议发帖,您的支持,是我们发展的最大动力;投诉建议

本版积分规则
提醒:禁止复制他人回复等『恶意灌水』行为,违者重罚!

发布主题
阅读排行更多+
快速回复 收藏帖子 返回列表
即刻加入,享受更多精彩。 会员登录[Login] 注册[Register]
资源分享,资源共享。
官方Facebok
Facebook.com/8ziyuan
意见反馈:[email protected]

关注我们的官方Twitter

Powered by Discuz! © 2016-2021 8ziyuan.com Inc. Protected by CloudFlare | 小黑屋 | 8资源分享论坛 | RSS订阅 | 手机版 | 联系我们