请选择 进入手机版 | 继续访问电脑版

青春珊瑚岛.The Blue LagoonS-KOOK.[中英双字] 8.75GB.1980.US.BluRay.19...

  [复制链接]
唐章小小 发表于 2019-6-3 19:28 | 显示全部楼层 |阅读模式 打印 上一主题 下一主题
青春珊瑚岛.The Blue Lagoon.1980.US.BluRay.1920x1040p.x264.DTS-KOOK.[中英双字]8.75GB
无广告,无水印,欢迎转发
独家中英双字幕
不定时做种,保证出种,请耐心等待.

2e762599c1f5739a425dff9516d241a8.jpg
※※※※※※※ 影片信息 ※※※※※※※

◎片   名 The Blue Lagoon
◎译   名 青春珊瑚岛 / 蓝色珊瑚礁
◎年   代 1980
◎国   家 美国
◎类   别 剧情 / 爱情 / 冒险
◎语   言 英语
◎上映日 期 1980-07-05
◎字   幕 中英双字/繁英双字/简体字幕/繁体字幕/英文字幕
◎IMDB 评分  7.8/10 from 4793 users
◎豆瓣 评分  5.7/10 from 56969 users
◎视频尺 寸  1920x1080p
◎片   长 1.44.44
◎导   演 兰德尔·克莱泽
◎编   剧  Douglas Day Stewart / Henry De Vere Stacpoole
◎主   演 波姬·小丝 / 克里斯托弗斯·阿特金斯 / 莱奥·麦凯恩




◎简  介


  一次意外中,艾米丽(波姬·小丝 Brooke Shields 饰)和理查德(克里斯托弗斯·阿特金斯 Christopher Atkins 饰)流落到了一座孤岛上,面对凶险的大自然,他们必须为自己开拓一片赖以生存的环境。好在岛上的物资十分的丰饶,两人的生活上不成问题,只是在偌大的天地间,茕茕独立的孤独只有两人自己清楚。
  获救之日遥遥无期,艾米丽和理查德却早已习惯了岛上闲散安逸的生活。孤男寡女,奇妙的感情慢慢的拉近了两人的距离,不久之后,艾米丽生下了一名男婴,为两人的生活又增加了一份快乐。救援队的不期而至打破了这世外桃源般的生活,在和救援人员进行了交流后,两人发现,他们早已不适合再生活在文明社会之中,两人决定留在此地,永远的生活在他们的伊甸园之中

第53届奥斯卡金像奖 最佳摄影(提名) 内斯托尔·阿尔门德罗斯



※※※※※※※ 参数信息 ※※※※※※※


General
Unique ID                      : 214362280229325990960783969334802693237 (0xA144AC66D4C5A59F8D0F28BE6676BC75)

Format                         : Matroska
Format version                 : Version 4 / Version 2
File size                      : 8.75 GiB
Duration                       : 1 h 44 min
Overall bit rate               : 12.0 Mb/s
Movie name                     : KOOK
Encoded date                   : UTC 2018-11-22 15:27:16
Writing application            : mkvmerge v9.4.2 ('So High') 64bit
Writing library                : libebml v1.3.4 + libmatroska v1.4.5
Attachments                    : 正式海报 美国.jpg / fzlbfw.ttf / fzlbjw.ttf

Video
ID                             : 1
Format                         : AVC
Format/Info                    : Advanced Video Codec
Format profile                 : [email protected]
Format settings, CABAC         : Yes
Format settings, ReFrames      : 4 frames
Codec ID                       : V_MPEG4/ISO/AVC
Duration                       : 1 h 44 min
Bit rate                       : 10.4 Mb/s
Width                          : 1 920 pixels
Height                         : 1 040 pixels
Display aspect ratio           : 1.85:1
Frame rate mode                : Constant
Frame rate                     : 23.976 (24000/1001) FPS
Color space                    : YUV
Chroma subsampling             : 4:2:0
Bit depth                      : 8 bits
Scan type                      : Progressive
Bits/(Pixel*Frame)             : 0.218
Stream size                    : 7.64 GiB (87%)
Writing library                : x264 core 129 r2230 1cffe9f
Encoding settings              : cabac=1 / ref=4 / deblock=1:0:0 / analyse=0x3:0x113 / me=umh / subme=8 / psy=1 / psy_rd=1.00:0.00 / mixed_ref=1 / me_range=16 / chroma_me=1 / trellis=1 / 8x8dct=1 / cqm=0 / deadzone=21,11 / fast_pskip=1 / chroma_qp_offset=-2 / threads=12 / lookahead_threads=2 / sliced_threads=0 / nr=0 / decimate=1 / interlaced=0 / bluray_compat=0 / constrained_intra=0 / bframes=3 / b_pyramid=2 / b_adapt=2 / b_bias=0 / direct=3 / weightb=1 / open_gop=0 / weightp=2 / keyint=240 / keyint_min=24 / scenecut=40 / intra_refresh=0 / rc_lookahead=50 / rc=2pass / mbtree=1 / bitrate=10444 / ratetol=1.0 / qcomp=0.60 / qpmin=0 / qpmax=69 / qpstep=4 / cplxblur=20.0 / qblur=0.5 / ip_ratio=1.40 / aq=1:1.00
Language                       : English
Default                        : Yes
Forced                         : No

Audio
ID                             : 2
Format                         : DTS
Format/Info                    : Digital Theater Systems
Mode                           : 16
Format settings, Endianness    : Big
Codec ID                       : A_DTS
Duration                       : 1 h 44 min
Bit rate mode                  : Constant
Bit rate                       : 1 509 kb/s
Channel(s)                     : 6 channels
Channel positions              : Front: L C R, Side: L R, LFE
Sampling rate                  : 48.0 kHz
Frame rate                     : 93.750 FPS (512 spf)
Bit depth                      : 24 bits
Compression mode               : Lossy
Stream size                    : 1.10 GiB (13%)
Language                       : English
Default                        : Yes
Forced                         : No

Text #1
ID                             : 3
Format                         : ASS
Codec ID                       : S_TEXT/ASS
Codec ID/Info                  : Advanced Sub Station Alpha
Duration                       : 1 h 43 min
Bit rate                       : 128 b/s
Count of elements              : 654
Compression mode               : Lossless
Stream size                    : 97.0 KiB (0%)
Title                          : 简英字幕
Language                       : Chinese
Default                        : Yes
Forced                         : No

Text #2
ID                             : 4
Format                         : ASS
Codec ID                       : S_TEXT/ASS
Codec ID/Info                  : Advanced Sub Station Alpha
Duration                       : 1 h 43 min
Bit rate                       : 128 b/s
Count of elements              : 654
Compression mode               : Lossless
Stream size                    : 97.0 KiB (0%)
Title                          : 繁英字幕
Language                       : Chinese
Default                        : No
Forced                         : No

Text #3
ID                             : 5
Format                         : ASS
Codec ID                       : S_TEXT/ASS
Codec ID/Info                  : Advanced Sub Station Alpha
Duration                       : 1 h 43 min
Bit rate                       : 60 b/s
Count of elements              : 651
Compression mode               : Lossless
Stream size                    : 45.5 KiB (0%)
Title                          : 简体字幕
Language                       : Chinese
Default                        : No
Forced                         : No

Text #4
ID                             : 6
Format                         : ASS
Codec ID                       : S_TEXT/ASS
Codec ID/Info                  : Advanced Sub Station Alpha
Duration                       : 1 h 43 min
Bit rate                       : 60 b/s
Count of elements              : 651
Compression mode               : Lossless
Stream size                    : 45.5 KiB (0%)
Title                          : 繁体字幕
Language                       : Chinese
Default                        : No
Forced                         : No

Text #5
ID                             : 7
Format                         : ASS
Codec ID                       : S_TEXT/ASS
Codec ID/Info                  : Advanced Sub Station Alpha
Duration                       : 1 h 43 min
Bit rate                       : 95 b/s
Count of elements              : 651
Compression mode               : Lossless
Stream size                    : 72.5 KiB (0%)
Title                          : 英文字幕
Language                       : English
Default                        : No
Forced                         : No

Menu
00:00:00.000                   : en:00:00:00.000
00:09:54.010                   : en:00:09:54.010
00:19:09.106                   : en:00:19:09.106
00:28:04.308                   : en:00:28:04.308
00:39:53.558                   : en:00:39:53.558
00:45:27.600                   : en:00:45:27.600
00:51:52.192                   : en:00:51:52.192
01:03:37.188                   : en:01:03:37.188
01:08:21.973                   : en:01:08:21.973
01:19:24.218                   : en:01:19:24.218
01:32:03.893                   : en:01:32:03.893
01:43:06.931                   : en:01:43:06.931
f3e5a856f5e247f4ce8133dc5d8bb8c2.jpg



青春珊瑚岛.The Blue Lagoon.1980.US.BluRay.1920x1040p.x264.DTS-KOOK.[中英双字].to.torrent

92.11 KB, 下载次数: 11


【扫码访问手机版】

温馨提示

记得善用社区搜索功能,那里可能会有你想要的资源;论坛站内搜索

如果你有什么需要的资源可以去资源求档发帖,求助社区的网友,我们会在第一时间给你回复哦;资源求档

对于本社区如果你有任何好建议或者相关合作可以随时与我们联系,或者在投诉建议发帖,您的支持,是我们发展的最大动力;投诉建议

精彩评论37

娇滴滴的女汉子@ 发表于 2019-6-3 20:11 | 显示全部楼层
十分感谢

温馨提示

记得善用社区搜索功能,那里可能会有你想要的资源;论坛站内搜索

如果你有什么需要的资源可以去资源求档发帖,求助社区的网友,我们会在第一时间给你回复哦;资源求档

对于本社区如果你有任何好建议或者相关合作可以随时与我们联系,或者在投诉建议发帖,您的支持,是我们发展的最大动力;投诉建议

相许 发表于 2019-6-4 05:58 | 显示全部楼层
找了好久终于找到了

温馨提示

记得善用社区搜索功能,那里可能会有你想要的资源;论坛站内搜索

如果你有什么需要的资源可以去资源求档发帖,求助社区的网友,我们会在第一时间给你回复哦;资源求档

对于本社区如果你有任何好建议或者相关合作可以随时与我们联系,或者在投诉建议发帖,您的支持,是我们发展的最大动力;投诉建议

胖妞i 发表于 2019-6-4 15:24 | 显示全部楼层
强烈感谢

温馨提示

记得善用社区搜索功能,那里可能会有你想要的资源;论坛站内搜索

如果你有什么需要的资源可以去资源求档发帖,求助社区的网友,我们会在第一时间给你回复哦;资源求档

对于本社区如果你有任何好建议或者相关合作可以随时与我们联系,或者在投诉建议发帖,您的支持,是我们发展的最大动力;投诉建议

梦想永遠在騷動 发表于 2019-6-5 00:36 来自手机 | 显示全部楼层
前排支持 感谢分享

温馨提示

记得善用社区搜索功能,那里可能会有你想要的资源;论坛站内搜索

如果你有什么需要的资源可以去资源求档发帖,求助社区的网友,我们会在第一时间给你回复哦;资源求档

对于本社区如果你有任何好建议或者相关合作可以随时与我们联系,或者在投诉建议发帖,您的支持,是我们发展的最大动力;投诉建议

爱⌒轻易说出口 发表于 2019-6-5 10:44 来自手机 | 显示全部楼层
太赞了!!!LZ!!!!

温馨提示

记得善用社区搜索功能,那里可能会有你想要的资源;论坛站内搜索

如果你有什么需要的资源可以去资源求档发帖,求助社区的网友,我们会在第一时间给你回复哦;资源求档

对于本社区如果你有任何好建议或者相关合作可以随时与我们联系,或者在投诉建议发帖,您的支持,是我们发展的最大动力;投诉建议

菇凉ˉAmor 发表于 2019-6-5 18:58 | 显示全部楼层
<<青春珊瑚岛.The Blue LagoonS-KOOK.[中英双字] 8.75GB.1980.US.BluRay.19...>>

温馨提示

记得善用社区搜索功能,那里可能会有你想要的资源;论坛站内搜索

如果你有什么需要的资源可以去资源求档发帖,求助社区的网友,我们会在第一时间给你回复哦;资源求档

对于本社区如果你有任何好建议或者相关合作可以随时与我们联系,或者在投诉建议发帖,您的支持,是我们发展的最大动力;投诉建议

江山女帝 发表于 2019-6-6 05:24 | 显示全部楼层
多谢,谢谢楼主。

温馨提示

记得善用社区搜索功能,那里可能会有你想要的资源;论坛站内搜索

如果你有什么需要的资源可以去资源求档发帖,求助社区的网友,我们会在第一时间给你回复哦;资源求档

对于本社区如果你有任何好建议或者相关合作可以随时与我们联系,或者在投诉建议发帖,您的支持,是我们发展的最大动力;投诉建议

眼角下的眼泪※ 发表于 2019-6-6 14:16 | 显示全部楼层
感谢你的分享,论坛有你更加的精彩

温馨提示

记得善用社区搜索功能,那里可能会有你想要的资源;论坛站内搜索

如果你有什么需要的资源可以去资源求档发帖,求助社区的网友,我们会在第一时间给你回复哦;资源求档

对于本社区如果你有任何好建议或者相关合作可以随时与我们联系,或者在投诉建议发帖,您的支持,是我们发展的最大动力;投诉建议

–詠逺消夨° 发表于 2019-6-6 22:37 | 显示全部楼层
金币不够了回复有金币吗

温馨提示

记得善用社区搜索功能,那里可能会有你想要的资源;论坛站内搜索

如果你有什么需要的资源可以去资源求档发帖,求助社区的网友,我们会在第一时间给你回复哦;资源求档

对于本社区如果你有任何好建议或者相关合作可以随时与我们联系,或者在投诉建议发帖,您的支持,是我们发展的最大动力;投诉建议

您需要登录后才可以回帖 登录 | 注册会员[Register]  

本版积分规则

发布主题
阅读排行更多+
快速回复 收藏帖子 返回列表
注册会员,尊享海量资源免费资源。 会员登录[Login] 注册[Register]
资源分享,资源共享。
官方Twitter
Twitter.com/8ziyuan
意见反馈:[email protected]

关注我们的官方Twitter

Powered by Discuz! © 2016-2019 8ziyuan.com Inc. Protected by CloudFlare | 小黑屋 | 8资源分享论坛 | RSS订阅 | 手机版 | 联系我们