请选择 进入手机版 | 继续访问电脑版

[恐怖片] 玩命逃杀 Play.Or.Die.2019.1080p.WEB-DL.DD5.1.H264-FGT 3.09GB

  [复制链接]
唐章小小 发表于 2019-7-9 00:03 | 显示全部楼层 |阅读模式 打印 上一主题 下一主题
5d22b70cc59dc.png

◎译  名 玩命逃杀 / Puzzle / 密室大逃杀(台)
◎片  名 Play or Die
◎年  代 2019
◎产  地 比利时
◎类  别 惊悚 / 恐怖
◎语  言 英语
◎上映日期 2019-05-10(俄罗斯) / 2019-05-17(立陶宛)
◎IMDb评分 4.0/10 from 196 users
◎IMDb链接 http://www.imdb.com/title/tt9537532
◎豆瓣评分 0/10 from 0 users
◎豆瓣链接 https://movie.douban.com/subject/33415768/
◎片  长 89分钟
◎导  演 Jacques Kluger
◎编  剧 Amiel Bartana / Jacques Kluger
◎主  演 查理·帕尔默·罗斯韦尔 Charley Palmer Rothwell
      罗珊娜·马奎达 Roxane Mesquida
      Laetitia Chambon
      Helena Chambon
      Marie Zabukovec
      Igor van Dessel
      Thomas Mustin
      Daphné Huynh
      Alizée Gaye
      Priscilla Adade
      Caroline Donnelly
      Koah Edwards
      Hippolyte de Poucques


◎标  签 恐怖 | 3M稀影基地论坛 | 3M稀影基地

◎简  介

  Lucas and Chloe are two passionate gamers. When they hear about Paranoia, an extremely exclusive escape game, they can’t help themselves but participate. After they manage to solve the first riddle, the location of the finale is revealed: a deserted psychiatric hospital in the middle of a terrifying forest. When they arrive, there are four other participants. A race against the clock begins. They start searching their way out of the asylum, but soon they realize that it’s a game of life and death. One of them must die.
Based on the bestseller “Puzzle” by Franck Thilliez, this dark psychological thriller grabs you by the throat. PLAY OR DIE is first feature by Jacques Kluger, who also wrote the screenplay. The film was shot in Belgium but has an international cast. Lucas is played by Charley Palmer Rothwell, known for DUNKIRK, DARKEST HOUR, and LEGEND. Roxane Mesquida, who interprets Chloe, is a BIFFF regular, seen in in films like RUBBER and BURNING SHADOW. Still willing to venture into an escape room?

Video
ID : 1
Format : AVC
Format/Info : Advanced Video Codec
Format profile : [email protected]
Format settings : CABAC / 5 Ref Frames
Format settings, CABAC : Yes
Format settings, ReFrames : 5 frames
Codec ID : V_MPEG4/ISO/AVC
Duration : 1 h 29 min
Bit rate : 4 561 kb/s
Width : 1 920 pixels
Height : 804 pixels
Display aspect ratio : 2.40:1
Frame rate mode : Constant
Frame rate : 24.000 FPS
Color space : YUV
Chroma subsampling : 4:2:0
Bit depth : 8 bits
Scan type : Progressive
Bits/(Pixel*Frame) : 0.123
Stream size : 2.84 GiB (92%)
Title : Play.Or.Die.2019.1080p.WEB-DL.DD5.1.H264-FGT
Language : English
Default : Yes
Forced : No
Color range : Limited
Color primaries : BT.709
Transfer characteristics : BT.709
Matrix coefficients : BT.709

Audio
ID : 2
Format : AC-3
Format/Info : Audio Coding 3
Commercial name : Dolby Digital
Codec ID : A_AC3
Duration : 1 h 29 min
Bit rate mode : Constant
Bit rate : 384 kb/s
Channel(s) : 6 channels
Channel layout : L R C LFE Ls Rs
Sampling rate : 48.0 kHz
Frame rate : 31.250 FPS (1536 SPF)
Bit depth : 16 bits
Compression mode : Lossy
Stream size : 245 MiB (8%)
Title : Play.Or.Die.2019.1080p.WEB-DL.DD5.1.H264-FGT
Language : English
Service kind : Complete Main
Default : Yes
Forced : No

Text
ID : 3
Format : UTF-8
Codec ID : S_TEXT/UTF8
Codec ID/Info : UTF-8 Plain Text
Duration : 1 h 23 min
Bit rate : 55 b/s
Count of elements : 964
Stream size : 34.3 KiB (0%)
Language : English
Default : Yes
Forced : No

Menu
00:00:00.000 : en:Chapter 1
00:11:05.665 : en:Chapter 2
00:16:47.006 : en:Chapter 3
00:29:23.762 : en:Chapter 4
00:40:26.424 : en:Chapter 5
00:51:19.076 : en:Chapter 6
01:00:44.641 : en:Chapter 7
01:10:11.207 : en:Chapter 8
01:18:23.699 : en:Chapter 9
01:27:02.217 : en:Chapter 10

5d22b72f63e0d.png 5d22b73088084.png 5d22b731a1245.png

Play.Or.Die.2019.1080p.WEB-DL.DD5.1.H264-FGT.torrent

31.37 KB, 下载次数: 5


【扫码访问手机版】

温馨提示

记得善用社区搜索功能,那里可能会有你想要的资源;论坛站内搜索

如果你有什么需要的资源可以去资源求档发帖,求助社区的网友,我们会在第一时间给你回复哦;资源求档

对于本社区如果你有任何好建议或者相关合作可以随时与我们联系,或者在投诉建议发帖,您的支持,是我们发展的最大动力;投诉建议

回复

使用道具 举报

精彩评论46

颓废ヤ心碎ゞ 发表于 2019-7-9 00:44 | 显示全部楼层
太赞了!!!LZ!!!!

温馨提示

记得善用社区搜索功能,那里可能会有你想要的资源;论坛站内搜索

如果你有什么需要的资源可以去资源求档发帖,求助社区的网友,我们会在第一时间给你回复哦;资源求档

对于本社区如果你有任何好建议或者相关合作可以随时与我们联系,或者在投诉建议发帖,您的支持,是我们发展的最大动力;投诉建议

回复 支持 反对

使用道具 举报

限量版女汉子i 发表于 2019-7-9 06:47 | 显示全部楼层
找了好久终于找到了

温馨提示

记得善用社区搜索功能,那里可能会有你想要的资源;论坛站内搜索

如果你有什么需要的资源可以去资源求档发帖,求助社区的网友,我们会在第一时间给你回复哦;资源求档

对于本社区如果你有任何好建议或者相关合作可以随时与我们联系,或者在投诉建议发帖,您的支持,是我们发展的最大动力;投诉建议

回复 支持 反对

使用道具 举报

雨下的樱花★ 发表于 2019-7-9 13:00 | 显示全部楼层
666,这个可以支持!

温馨提示

记得善用社区搜索功能,那里可能会有你想要的资源;论坛站内搜索

如果你有什么需要的资源可以去资源求档发帖,求助社区的网友,我们会在第一时间给你回复哦;资源求档

对于本社区如果你有任何好建议或者相关合作可以随时与我们联系,或者在投诉建议发帖,您的支持,是我们发展的最大动力;投诉建议

回复 支持 反对

使用道具 举报

壊丫頭,没人嗳 发表于 2019-7-9 18:47 | 显示全部楼层
谢谢楼主分享

温馨提示

记得善用社区搜索功能,那里可能会有你想要的资源;论坛站内搜索

如果你有什么需要的资源可以去资源求档发帖,求助社区的网友,我们会在第一时间给你回复哦;资源求档

对于本社区如果你有任何好建议或者相关合作可以随时与我们联系,或者在投诉建议发帖,您的支持,是我们发展的最大动力;投诉建议

回复 支持 反对

使用道具 举报

巷弄 发表于 2019-7-10 00:16 来自手机 | 显示全部楼层
太赞了!!!LZ!!!!

温馨提示

记得善用社区搜索功能,那里可能会有你想要的资源;论坛站内搜索

如果你有什么需要的资源可以去资源求档发帖,求助社区的网友,我们会在第一时间给你回复哦;资源求档

对于本社区如果你有任何好建议或者相关合作可以随时与我们联系,或者在投诉建议发帖,您的支持,是我们发展的最大动力;投诉建议

回复 支持 反对

使用道具 举报

下一个凤姐。 发表于 2019-7-10 06:02 | 显示全部楼层
找了好久终于找到了

温馨提示

记得善用社区搜索功能,那里可能会有你想要的资源;论坛站内搜索

如果你有什么需要的资源可以去资源求档发帖,求助社区的网友,我们会在第一时间给你回复哦;资源求档

对于本社区如果你有任何好建议或者相关合作可以随时与我们联系,或者在投诉建议发帖,您的支持,是我们发展的最大动力;投诉建议

回复 支持 反对

使用道具 举报

灵魂—堕落者 发表于 2019-7-10 11:58 | 显示全部楼层
找了好久终于找到了

温馨提示

记得善用社区搜索功能,那里可能会有你想要的资源;论坛站内搜索

如果你有什么需要的资源可以去资源求档发帖,求助社区的网友,我们会在第一时间给你回复哦;资源求档

对于本社区如果你有任何好建议或者相关合作可以随时与我们联系,或者在投诉建议发帖,您的支持,是我们发展的最大动力;投诉建议

回复 支持 反对

使用道具 举报

为爱搁浅心脏 发表于 2019-7-10 17:28 来自手机 | 显示全部楼层
前排支持 感谢分享

温馨提示

记得善用社区搜索功能,那里可能会有你想要的资源;论坛站内搜索

如果你有什么需要的资源可以去资源求档发帖,求助社区的网友,我们会在第一时间给你回复哦;资源求档

对于本社区如果你有任何好建议或者相关合作可以随时与我们联系,或者在投诉建议发帖,您的支持,是我们发展的最大动力;投诉建议

回复 支持 反对

使用道具 举报

請把小熊还给我 发表于 2019-7-10 22:59 | 显示全部楼层
资源可用!谢谢分享!

温馨提示

记得善用社区搜索功能,那里可能会有你想要的资源;论坛站内搜索

如果你有什么需要的资源可以去资源求档发帖,求助社区的网友,我们会在第一时间给你回复哦;资源求档

对于本社区如果你有任何好建议或者相关合作可以随时与我们联系,或者在投诉建议发帖,您的支持,是我们发展的最大动力;投诉建议

回复 支持 反对

使用道具 举报

您需要登录后才可以回帖 登录 | 注册会员[Register]  

本版积分规则

发布主题
阅读排行更多+
快速回复 收藏帖子 返回列表
注册会员,尊享海量资源免费资源。 会员登录[Login] 注册[Register]
资源分享,资源共享。
官方Twitter
Twitter.com/8ziyuan
意见反馈:[email protected]

关注我们的官方Twitter

Powered by Discuz! © 2016-2019 8ziyuan.com Inc. Protected by CloudFlare | 小黑屋 | 8资源分享论坛 | RSS订阅 | 手机版 | 联系我们