请选择 进入手机版 | 继续访问电脑版

[动作片] 城市猎人.Nicky.Larson.Et.Le.Parfum.De.Cupidon.2019.FRENCH.1080p.BluRay.DT...

  [复制链接]
唐章小小 发表于 2019-7-17 02:59 | 显示全部楼层 |阅读模式 打印 上一主题 下一主题



◎译  名 城市猎人
◎片  名 Nicky Larson
◎年  代 2019
◎产  地 法国
◎类  别 喜剧/动作/犯罪
◎语  言 法语
◎上映日期 2019-02-06(法国)
◎IMDb评分  6.5/10 from 1,165 users
◎豆瓣评分 /10 from 0 users
◎片  长 91分钟
◎导  演 菲利普·拉肖 Philippe Lacheau
◎编  剧 菲利普·拉肖 Philippe Lacheau / 北条司 Tsukasa Hôjô
◎主  演 菲利普·拉肖 Philippe Lacheau
       艾罗娣·方坦 Élodie Fontan
       帕米拉·安德森 Pamela Anderson
       朱利安·阿鲁蒂 Julien Arruti
       塔雷克·布达里 Tarek Boudali
       迪迪埃·布尔东 Didier Bourdon
       多萝泰 Dorothée
       热拉尔·朱尼奥 Gérard Jugnot
       杰若梅·勒·班纳 Jérôme Le Banner

◎标  签 喜剧 | 漫画改编 | 法国 | 法国电影 | 动作 | 2019 | 搞笑 | 剧情

◎简  介


  北条司著名漫画《城市猎人》的法国真人版,Nicky Larson是人称“城市猎人”的私家侦探,他集幽默、正义、好色于一身,擅长处理五花八门的棘手任务,深受委托人信赖。某天一名神秘人士交付一项危险任务,要他保护神奇的爱情灵药“丘比特香水”,此款香水会让人性欲大开、如狼似虎 ,天不怕地不怕的Nicky欣然接受,谁知香水却被有心人士偷走,他必须在时限之内找回香水,否则会天下大乱……
5b06cd0be77fa697c5b62d6a24e25f35.jpg

General
Unique ID                      : 45098099925648308528250393053561439294 (0x21ED93FEE5C36B70AEF55E8D7A81443E)
Complete name                  : Y:Nicky.Larson.Et.Le.Parfum.De.Cupidon.2019.FRENCH.1080p.BluRay.DTS.x264-UTT.mkv
Format                         : Matroska
Format version                 : Version 4 / Version 2
File size                      : 6.56 GiB
Duration                       : 1 h 31 min
Overall bit rate               : 10.3 Mb/s
Encoded date                   : UTC 2019-06-28 14:37:45
Writing application            : mkvmerge v20.0.0 ('I Am The Sun') 32-bit
Writing library                : libebml v1.3.5 + libmatroska v1.4.8

Video
ID                             : 1
Format                         : AVC
Format/Info                    : Advanced Video Codec
Format profile                 : [email protected]
Format settings                : CABAC / 5 Ref Frames
Format settings, CABAC         : Yes
Format settings, ReFrames      : 5 frames
Codec ID                       : V_MPEG4/ISO/AVC
Duration                       : 1 h 31 min
Bit rate                       : 8 783 kb/s
Width                          : 1 920 pixels
Height                         : 808 pixels
Display aspect ratio           : 2.40:1
Frame rate mode                : Constant
Frame rate                     : 24.000 FPS
Color space                    : YUV
Chroma subsampling             : 4:2:0
Bit depth                      : 8 bits
Scan type                      : Progressive
Bits/(Pixel*Frame)             : 0.236
Stream size                    : 5.59 GiB (85%)
Writing library                : x264 core 155 r2901 7d0ff22
Encoding settings              : cabac=1 / ref=5 / deblock=1:-3:-3 / analyse=0x3:0x113 / me=umh / subme=10 / psy=1 / psy_rd=1.00:0.00 / mixed_ref=1 / me_range=24 / chroma_me=1 / trellis=2 / 8x8dct=1 / cqm=0 / deadzone=21,11 / fast_pskip=1 / chroma_qp_offset=-2 / threads=24 / lookahead_threads=4 / sliced_threads=0 / nr=0 / decimate=1 / interlaced=0 / bluray_compat=0 / constrained_intra=0 / bframes=8 / b_pyramid=2 / b_adapt=2 / b_bias=0 / direct=3 / weightb=1 / open_gop=0 / weightp=2 / keyint=240 / keyint_min=24 / scenecut=40 / intra_refresh=0 / rc_lookahead=60 / rc=2pass / mbtree=1 / bitrate=8783 / ratetol=1.0 / qcomp=0.60 / qpmin=0 / qpmax=69 / qpstep=4 / cplxblur=20.0 / qblur=0.5 / ip_ratio=1.40 / aq=1:1.00
Default                        : Yes
Forced                         : No
Color range                    : Limited
Color primaries                : BT.709
Transfer characteristics       : BT.709
Matrix coefficients            : BT.709

Audio
ID                             : 2
Format                         : DTS
Format/Info                    : Digital Theater Systems
Codec ID                       : A_DTS
Duration                       : 1 h 31 min
Bit rate mode                  : Constant
Bit rate                       : 1 509 kb/s
Channel(s)                     : 6 channels
Channel positions              : Front: L C R, Side: L R, LFE
Sampling rate                  : 48.0 kHz
Frame rate                     : 93.750 FPS (512 SPF)
Bit depth                      : 16 bits
Compression mode               : Lossy
Stream size                    : 985 MiB (15%)
Language                       : French
Default                        : Yes
Forced                         : No

Text
ID                             : 3
Format                         : UTF-8
Codec ID                       : S_TEXT/UTF8
Codec ID/Info                  : UTF-8 Plain Text
Duration                       : 1 h 30 min
Bit rate                       : 61 b/s
Count of elements              : 1743
Stream size                    : 40.5 KiB (0%)
Title                          : SDH
Language                       : French
Default                        : Yes
Forced                         : No

Menu
00:00:00.000                   : fr:(01)00:00:00:000
00:06:35.541                   : fr:(02)00:06:35:541
00:17:02.208                   : fr:(03)00:17:02:208
00:26:28.583                   : fr:(04)00:26:28:583
00:33:25.500                   : fr:(05)00:33:25:500
00:40:12.375                   : fr:(06)00:40:12:375
00:48:23.791                   : fr:(07)00:48:23:791
00:53:50.375                   : fr:(08)00:53:50:375
01:04:50.708                   : fr:(09)01:04:50:708
01:09:02.291                   : fr:(10)01:09:02:291
01:20:15.666                   : fr:(11)01:20:15:666
01:28:28.291                   : fr:(12)01:28:28:291

Nicky Larson et le parfum de Cupidon FRENCH BluRay 1080p 2019.torrent

67.23 KB, 下载次数: 98


【扫码访问手机版】

温馨提示

记得善用社区搜索功能,那里可能会有你想要的资源;论坛站内搜索

如果你有什么需要的资源可以去资源求档发帖,求助社区的网友,我们会在第一时间给你回复哦;资源求档

对于本社区如果你有任何好建议或者相关合作可以随时与我们联系,或者在投诉建议发帖,您的支持,是我们发展的最大动力;投诉建议

精彩评论48

哈妹。 发表于 2019-7-17 04:45 | 显示全部楼层
<<城市猎人.Nicky.Larson.Et.Le.Parfum.De.Cupidon.2019.FRENCH.1080p.BluRay.DT...>>

温馨提示

记得善用社区搜索功能,那里可能会有你想要的资源;论坛站内搜索

如果你有什么需要的资源可以去资源求档发帖,求助社区的网友,我们会在第一时间给你回复哦;资源求档

对于本社区如果你有任何好建议或者相关合作可以随时与我们联系,或者在投诉建议发帖,您的支持,是我们发展的最大动力;投诉建议

oぃ輸在喜欢妳 发表于 2019-7-17 11:03 | 显示全部楼层
太赞了!!!LZ!!!!

温馨提示

记得善用社区搜索功能,那里可能会有你想要的资源;论坛站内搜索

如果你有什么需要的资源可以去资源求档发帖,求助社区的网友,我们会在第一时间给你回复哦;资源求档

对于本社区如果你有任何好建议或者相关合作可以随时与我们联系,或者在投诉建议发帖,您的支持,是我们发展的最大动力;投诉建议

苝海莈冇猫 发表于 2019-7-17 16:43 | 显示全部楼层
强烈感谢

温馨提示

记得善用社区搜索功能,那里可能会有你想要的资源;论坛站内搜索

如果你有什么需要的资源可以去资源求档发帖,求助社区的网友,我们会在第一时间给你回复哦;资源求档

对于本社区如果你有任何好建议或者相关合作可以随时与我们联系,或者在投诉建议发帖,您的支持,是我们发展的最大动力;投诉建议

二次元的妹子 发表于 2019-7-17 22:48 | 显示全部楼层
感谢分享

温馨提示

记得善用社区搜索功能,那里可能会有你想要的资源;论坛站内搜索

如果你有什么需要的资源可以去资源求档发帖,求助社区的网友,我们会在第一时间给你回复哦;资源求档

对于本社区如果你有任何好建议或者相关合作可以随时与我们联系,或者在投诉建议发帖,您的支持,是我们发展的最大动力;投诉建议

梦回千年 发表于 2019-7-18 04:52 | 显示全部楼层
666,这个可以支持!

温馨提示

记得善用社区搜索功能,那里可能会有你想要的资源;论坛站内搜索

如果你有什么需要的资源可以去资源求档发帖,求助社区的网友,我们会在第一时间给你回复哦;资源求档

对于本社区如果你有任何好建议或者相关合作可以随时与我们联系,或者在投诉建议发帖,您的支持,是我们发展的最大动力;投诉建议

残花可以败柳 发表于 2019-7-18 10:44 | 显示全部楼层
十分感谢

温馨提示

记得善用社区搜索功能,那里可能会有你想要的资源;论坛站内搜索

如果你有什么需要的资源可以去资源求档发帖,求助社区的网友,我们会在第一时间给你回复哦;资源求档

对于本社区如果你有任何好建议或者相关合作可以随时与我们联系,或者在投诉建议发帖,您的支持,是我们发展的最大动力;投诉建议

沵魡管眞寬♂ 发表于 2019-7-18 16:50 来自手机 | 显示全部楼层
资源可用!谢谢分享!

温馨提示

记得善用社区搜索功能,那里可能会有你想要的资源;论坛站内搜索

如果你有什么需要的资源可以去资源求档发帖,求助社区的网友,我们会在第一时间给你回复哦;资源求档

对于本社区如果你有任何好建议或者相关合作可以随时与我们联系,或者在投诉建议发帖,您的支持,是我们发展的最大动力;投诉建议

为爱搁浅心脏 发表于 2019-7-19 21:09 来自手机 | 显示全部楼层
资源可用!谢谢分享!

温馨提示

记得善用社区搜索功能,那里可能会有你想要的资源;论坛站内搜索

如果你有什么需要的资源可以去资源求档发帖,求助社区的网友,我们会在第一时间给你回复哦;资源求档

对于本社区如果你有任何好建议或者相关合作可以随时与我们联系,或者在投诉建议发帖,您的支持,是我们发展的最大动力;投诉建议

-葬心葬爱° 发表于 2019-7-20 03:30 | 显示全部楼层
前排支持 感谢分享

温馨提示

记得善用社区搜索功能,那里可能会有你想要的资源;论坛站内搜索

如果你有什么需要的资源可以去资源求档发帖,求助社区的网友,我们会在第一时间给你回复哦;资源求档

对于本社区如果你有任何好建议或者相关合作可以随时与我们联系,或者在投诉建议发帖,您的支持,是我们发展的最大动力;投诉建议

您需要登录后才可以回帖 登录 | 注册会员[Register]  

本版积分规则

发布主题
阅读排行更多+
快速回复 收藏帖子 返回列表
注册会员,尊享海量资源免费资源。 会员登录[Login] 注册[Register]
资源分享,资源共享。
官方Twitter
Twitter.com/8ziyuan
意见反馈:[email protected]

关注我们的官方Twitter

Powered by Discuz! © 2016-2019 8ziyuan.com Inc. Protected by CloudFlare | 小黑屋 | 8资源分享论坛 | RSS订阅 | 手机版 | 联系我们