请选择 进入手机版 | 继续访问电脑版

[剧情片] 我们曾是战士/军天壮志 We.Were.Soldiers.2002.1080p.BluRay.x264-TFiN ...

  [复制链接]
唐章小小 发表于 2019-8-28 00:47 | 显示全部楼层 |阅读模式 打印 上一主题 下一主题
428a15c329ee0.png

◎译  名 我们曾是战士 / 军天壮志 / 士兵宣言 / 征战岁月 / 我们曾经是战士 / 梅尔吉勃逊─勇士们 / 越战忠魂
◎片  名 We Were Soldiers
◎年  代 2002
◎产  地 美国 / 德国
◎类  别 剧情 / 动作 / 历史 / 战争
◎语  言 英语 / 法语 / 越南语
◎上映日期 2002-03-01
◎IMDb评分 7.1/10 from 122268 users
◎IMDb链接 http://www.imdb.com/title/tt0277434
◎豆瓣评分 7.6/10 from 11400 users
◎豆瓣链接 https://movie.douban.com/subject/1306606/
◎片  长 138 分钟
◎导  演 兰道尔·华莱士 Randall Wallace
◎编  剧 兰道尔·华莱士 Randall Wallace
◎主  演 梅尔·吉布森 Mel Gibson
      格雷戈·金尼尔 Greg Kinnear
      玛德琳·斯托 Madeleine Stowe
      山姆·艾里奥特 Sam Elliott
      凯丽·拉塞尔 Keri Russell
      克里斯·克莱因 Chris Klein
      巴里·佩珀 Barry Pepper


◎标  签 战争 | 越战 | 美国 | 梅尔·吉布森 | 美国电影 | 历史 | 我们曾经是战士 | 2002

◎简  介

  本片根据越南战争中的真实战斗改编。1965年11月,越南战争升级至美军直接参与战争阶段。驻越美军人数不断上升。摩尔中校(梅尔吉布森 Mel Gibson 饰)受命把一群新兵训练为真正的战士,部队中同时涌入不少随军家属,军人们扮演着丈夫与战士的双重角色,温馨的气氛中掺杂着丝丝不安。为了缓解单调的军旅生活,部队举办了大型晚会。出征的时刻到了,摩尔在典礼上庄严承诺“带回每一名士兵”。
  摩尔与他的部队被空降在临近柬埔寨的河谷地带,这里是北越军的重兵所在,人数弱势的美军陷入了重重包围,伤亡惨重,最后在火炮、直升机的辅助下战局开始僵持。第二天,战斗推进到山丘但仍然无法突破包围,摩尔寻求空军帮助,由于双方距离过近,美军的汽油弹炸伤了部分地面部队。摄影记者乔(Barry Pepper 饰)记录下了战斗中一幕幕残酷的画面。第三天,美军正准备进行决定性的近身战斗,这时空军支援到位了,越军被全灭。
Video
ID : 1
Format : AVC
Format/Info : Advanced Video Codec
Format profile : [email protected]
Format settings : CABAC / 5 Ref Frames
Format settings, CABAC : Yes
Format settings, Reference frames : 5 frames
Codec ID : V_MPEG4/ISO/AVC
Duration : 2 h 18 min
Bit rate : 12.1 Mb/s
Width : 1 920 pixels
Height : 816 pixels
Display aspect ratio : 2.35:1
Frame rate mode : Constant
Frame rate : 23.976 FPS
Color space : YUV
Chroma subsampling : 4:2:0
Bit depth : 8 bits
Scan type : Progressive
Bits/(Pixel*Frame) : 0.321
Stream size : 11.4 GiB (87%)
Writing library : x264 core 68 r1185 2956905
Encoding settings : cabac=1 / ref=5 / deblock=1:-1:-1 / analyse=0x3:0x133 / me=umh / subme=9 / psy_rd=1.0:0.0 / mixed_ref=1 / me_range=16 / chroma_me=1 / trellis=2 / 8x8dct=1 / cqm=0 / deadzone=21,11 / chroma_qp_offset=-2 / threads=3 / nr=0 / decimate=1 / mbaff=0 / bframes=5 / b_pyramid=1 / b_adapt=1 / b_bias=0 / direct=1 / wpredb=1 / keyint=250 / keyint_min=25 / scenecut=40 / rc=2pass / bitrate=12052 / ratetol=1.0 / qcomp=0.60 / qpmin=10 / qpmax=51 / qpstep=4 / cplxblur=20.0 / qblur=0.5 / ip_ratio=1.40 / pb_ratio=1.30 / aq=1:1.00
Language : English
Default : Yes
Forced : No

Audio
ID : 2
Format : DTS ES
Format/Info : Digital Theater Systems
Commercial name : DTS-ES Matrix
Codec ID : A_DTS
Duration : 2 h 18 min
Bit rate mode : Constant
Bit rate : 1 509 kb/s
Channel(s) : 6 channels
Channel(s)_Original : 7 channels
Channel layout : C L R Ls Rs Cb LFE
Sampling rate : 48.0 kHz
Frame rate : 93.750 FPS (512 SPF)
Bit depth : 24 bits
Compression mode : Lossy
Stream size : 1.46 GiB (11%)
Title : English DTS 5.1
Language : English
Default : Yes
Forced : No

Text
ID : 3
Format : UTF-8
Codec ID : S_TEXT/UTF8
Codec ID/Info : UTF-8 Plain Text
Title : English
Language : English
Default : Yes
Forced : No

30cdeda5bddee.png c496ceca9dab7.png ef7fd68fdc0d9.png 5e31a606eba92.png 6164b6ec3907e.png 2034f8cfd6d9b.png

We.Were.Soldiers.2002.1080p.BluRay.x264-TFiN.torrent

66.92 KB, 下载次数: 6


【扫码访问手机版】

温馨提示

记得善用社区搜索功能,那里可能会有你想要的资源;论坛站内搜索

如果你有什么需要的资源可以去资源求档发帖,求助社区的网友,我们会在第一时间给你回复哦;资源求档

对于本社区如果你有任何好建议或者相关合作可以随时与我们联系,或者在投诉建议发帖,您的支持,是我们发展的最大动力;投诉建议

精彩评论47

只剩淡漠 发表于 2019-8-28 01:06 来自手机 | 显示全部楼层
666,这个可以支持!

温馨提示

记得善用社区搜索功能,那里可能会有你想要的资源;论坛站内搜索

如果你有什么需要的资源可以去资源求档发帖,求助社区的网友,我们会在第一时间给你回复哦;资源求档

对于本社区如果你有任何好建议或者相关合作可以随时与我们联系,或者在投诉建议发帖,您的支持,是我们发展的最大动力;投诉建议

壊丫頭,没人嗳 发表于 2019-8-28 10:53 来自手机 | 显示全部楼层
666,这个可以支持!

温馨提示

记得善用社区搜索功能,那里可能会有你想要的资源;论坛站内搜索

如果你有什么需要的资源可以去资源求档发帖,求助社区的网友,我们会在第一时间给你回复哦;资源求档

对于本社区如果你有任何好建议或者相关合作可以随时与我们联系,或者在投诉建议发帖,您的支持,是我们发展的最大动力;投诉建议

丢失的心 发表于 2019-8-28 20:39 | 显示全部楼层
感谢你的分享,论坛有你更加的精彩

温馨提示

记得善用社区搜索功能,那里可能会有你想要的资源;论坛站内搜索

如果你有什么需要的资源可以去资源求档发帖,求助社区的网友,我们会在第一时间给你回复哦;资源求档

对于本社区如果你有任何好建议或者相关合作可以随时与我们联系,或者在投诉建议发帖,您的支持,是我们发展的最大动力;投诉建议

铷裹鰅見妳 发表于 2019-8-29 06:57 | 显示全部楼层
资源可用!谢谢分享!

温馨提示

记得善用社区搜索功能,那里可能会有你想要的资源;论坛站内搜索

如果你有什么需要的资源可以去资源求档发帖,求助社区的网友,我们会在第一时间给你回复哦;资源求档

对于本社区如果你有任何好建议或者相关合作可以随时与我们联系,或者在投诉建议发帖,您的支持,是我们发展的最大动力;投诉建议

苝海莈冇猫 发表于 2019-8-29 16:50 来自手机 | 显示全部楼层
资源可用!谢谢分享!

温馨提示

记得善用社区搜索功能,那里可能会有你想要的资源;论坛站内搜索

如果你有什么需要的资源可以去资源求档发帖,求助社区的网友,我们会在第一时间给你回复哦;资源求档

对于本社区如果你有任何好建议或者相关合作可以随时与我们联系,或者在投诉建议发帖,您的支持,是我们发展的最大动力;投诉建议

呼吸 发表于 2019-8-30 02:17 | 显示全部楼层
找了好久终于找到了

温馨提示

记得善用社区搜索功能,那里可能会有你想要的资源;论坛站内搜索

如果你有什么需要的资源可以去资源求档发帖,求助社区的网友,我们会在第一时间给你回复哦;资源求档

对于本社区如果你有任何好建议或者相关合作可以随时与我们联系,或者在投诉建议发帖,您的支持,是我们发展的最大动力;投诉建议

温入骨 发表于 2019-8-30 12:52 | 显示全部楼层
找了好久终于找到了

温馨提示

记得善用社区搜索功能,那里可能会有你想要的资源;论坛站内搜索

如果你有什么需要的资源可以去资源求档发帖,求助社区的网友,我们会在第一时间给你回复哦;资源求档

对于本社区如果你有任何好建议或者相关合作可以随时与我们联系,或者在投诉建议发帖,您的支持,是我们发展的最大动力;投诉建议

菇凉ˉAmor 发表于 2019-8-30 22:56 来自手机 | 显示全部楼层
前排支持 感谢分享

温馨提示

记得善用社区搜索功能,那里可能会有你想要的资源;论坛站内搜索

如果你有什么需要的资源可以去资源求档发帖,求助社区的网友,我们会在第一时间给你回复哦;资源求档

对于本社区如果你有任何好建议或者相关合作可以随时与我们联系,或者在投诉建议发帖,您的支持,是我们发展的最大动力;投诉建议

奶牛妹@ 发表于 2019-8-31 09:32 来自手机 | 显示全部楼层
好资源终于找到了<<我们曾是战士/军天壮志 We.Were.Soldiers.2002.1080p.BluRay.x264-TFiN ...>>

温馨提示

记得善用社区搜索功能,那里可能会有你想要的资源;论坛站内搜索

如果你有什么需要的资源可以去资源求档发帖,求助社区的网友,我们会在第一时间给你回复哦;资源求档

对于本社区如果你有任何好建议或者相关合作可以随时与我们联系,或者在投诉建议发帖,您的支持,是我们发展的最大动力;投诉建议

您需要登录后才可以回帖 登录 | 注册会员[Register]  

本版积分规则

发布主题
阅读排行更多+
快速回复 收藏帖子 返回列表
注册会员,尊享海量免费资源。 会员登录[Login] 注册[Register]
资源分享,资源共享。
官方Twitter
Twitter.com/8ziyuan
意见反馈:[email protected]

关注我们的官方Twitter

Powered by Discuz! © 2016-2019 8ziyuan.com Inc. Protected by CloudFlare | 小黑屋 | 8资源分享论坛 | RSS订阅 | 手机版 | 联系我们