请选择 进入手机版 | 继续访问电脑版

[动作片] 破茧威龙 Lock.Up.1989.REMASTERED.1080p.BluRay.x264.DTS-SWTYBLZ 11.89GB

  [复制链接]
唐章小小 发表于 2019-9-10 20:05 | 显示全部楼层 |阅读模式 打印 上一主题 下一主题
0f912ecfedf43.png

◎译  名 破茧威龙 / Condena brutal / 黑狱灾星
◎片  名 Lock Up
◎年  代 1989
◎产  地 美国
◎类  别 动作 / 惊悚 / 犯罪
◎语  言 英语
◎上映日期 1989-08-04(美国)
◎IMDb评分 6.4/10 from 35447 users
◎IMDb链接 http://www.imdb.com/title/tt0097770
◎豆瓣评分 7.0/10 from 1142 users
◎豆瓣链接 https://movie.douban.com/subject/1299316/
◎片  长 109分钟
◎导  演 约翰·弗林 John Flynn
◎编  剧 Richard Smith / 杰布·斯图尔特 Jeb Stuart / 亨利·罗森鲍姆 Henry Rosenbaum
◎主  演 西尔维斯特·史泰龙 Sylvester Stallone
      唐纳德·萨瑟兰 Donald Sutherland
      约翰·阿莫斯 John Amos
      索尼·兰哈姆 Sonny Landham
      汤姆·塞兹摩尔 Tom Sizemore
      Frank McRae


◎标  签 史泰龙 | 动作 | 美国 | 监狱 | 犯罪 | 1989 | 美国电影 | 剧情

◎简  介

  模范犯人弗兰克?莱昂尼(西尔维斯特?史泰龙 Sylvester Stallone 饰)的刑期还剩半年,他定期可以外出与女友见面,这个昔日的修车技师看中了一处仓库作为日后的修理部,平凡的生活在等待着他。然而某天他突然被转移到环境恶劣的盖特威监狱,全因五年前他为了见师父兼养父的最后一面,从监狱长庄古(唐纳德?萨瑟兰 Donald Sutherland 饰)的治下逃脱。弗兰克越狱成功成为英雄,而庄古却遭受处罚怀恨在心。现在,庄古将弗兰克重新掌握,寻机报仇。
  弗兰克遭到了庄古及手下的恶劣对待,但始终隐忍,并且渐渐在监狱中结交了几个朋友,包括始终想越狱的囚房万事通、瘦弱年轻的“杀手”和狱中修理厂的负责人,枯燥的生活有了好转,但是庄古始终默默注视着他,准备给他更大的痛苦……
Video
ID : 1
Format : AVC
Format/Info : Advanced Video Codec
Format profile : [email protected]
Format settings : CABAC / 4 Ref Frames
Format settings, CABAC : Yes
Format settings, Reference frames : 4 frames
Codec ID : V_MPEG4/ISO/AVC
Duration : 1 h 48 min
Bit rate : 14.2 Mb/s
Width : 1 920 pixels
Height : 1 038 pixels
Display aspect ratio : 1.85:1
Frame rate mode : Constant
Frame rate : 24.000 FPS
Color space : YUV
Chroma subsampling : 4:2:0
Bit depth : 8 bits
Scan type : Progressive
Bits/(Pixel*Frame) : 0.296
Stream size : 10.7 GiB (90%)
Title : Lock.Up.1989.REMASTERED.1080p.BluRay.x264.DTS-SWTYBLZ
Writing library : x264 core 157 r2935 545de2f
Encoding settings : cabac=1 / ref=4 / deblock=1:-1:-1 / analyse=0x3:0x133 / me=umh / subme=10 / psy=1 / psy_rd=1.00:0.15 / mixed_ref=1 / me_range=48 / chroma_me=1 / trellis=2 / 8x8dct=1 / cqm=0 / deadzone=21,11 / fast_pskip=1 / chroma_qp_offset=-3 / threads=32 / lookahead_threads=5 / sliced_threads=0 / nr=0 / decimate=0 / interlaced=0 / bluray_compat=0 / constrained_intra=0 / bframes=8 / b_pyramid=2 / b_adapt=2 / b_bias=0 / direct=3 / weightb=1 / open_gop=0 / weightp=2 / keyint=250 / keyint_min=24 / scenecut=40 / intra_refresh=0 / rc_lookahead=60 / rc=crf / mbtree=1 / crf=22.0 / qcomp=0.60 / qpmin=0 / qpmax=69 / qpstep=4 / ip_ratio=1.40 / aq=1:1.00
Language : English
Default : Yes
Forced : No

Audio
ID : 2
Format : DTS
Format/Info : Digital Theater Systems
Codec ID : A_DTS
Duration : 1 h 48 min
Bit rate mode : Constant
Bit rate : 1 509 kb/s
Channel(s) : 6 channels
Channel layout : C L R Ls Rs LFE
Sampling rate : 48.0 kHz
Frame rate : 93.750 FPS (512 SPF)
Bit depth : 24 bits
Compression mode : Lossy
Stream size : 1.15 GiB (10%)
Title : Lock.Up.1989.REMASTERED.1080p.BluRay.x264.DTS-SWTYBLZ
Language : English
Default : Yes
Forced : No

Text
ID : 3
Format : UTF-8
Codec ID : S_TEXT/UTF8
Codec ID/Info : UTF-8 Plain Text
Duration : 1 h 42 min
Bit rate : 41 b/s
Count of elements : 1118
Stream size : 31.0 KiB (0%)
Language : English
Default : Yes
Forced : No

Menu
00:00:00.000 : en:Chapter 01
00:08:11.750 : en:Chapter 02
00:18:44.500 : en:Chapter 03
00:26:06.791 : en:Chapter 04
00:32:52.791 : en:Chapter 05
00:40:58.291 : en:Chapter 06
00:54:47.791 : en:Chapter 07
01:06:00.791 : en:Chapter 08
01:15:18.958 : en:Chapter 09
01:23:07.708 : en:Chapter 10
01:36:07.708 : en:Chapter 11
01:44:56.916 : en:Chapter 12

57d48e7795046.png 1c5667ef667a8.png a649da1729685.png

Lock.Up.1989.REMASTERED.1080p.BluRay.x264.DTS-SWTYBLZ.torrent

60 KB, 下载次数: 5


【扫码访问手机版】

温馨提示

记得善用社区搜索功能,那里可能会有你想要的资源;论坛站内搜索

如果你有什么需要的资源可以去资源求档发帖,求助社区的网友,我们会在第一时间给你回复哦;资源求档

对于本社区如果你有任何好建议或者相关合作可以随时与我们联系,或者在投诉建议发帖,您的支持,是我们发展的最大动力;投诉建议

精彩评论82

巷弄 发表于 2019-9-10 20:25 | 显示全部楼层
金币不够了回复有金币吗

温馨提示

记得善用社区搜索功能,那里可能会有你想要的资源;论坛站内搜索

如果你有什么需要的资源可以去资源求档发帖,求助社区的网友,我们会在第一时间给你回复哦;资源求档

对于本社区如果你有任何好建议或者相关合作可以随时与我们联系,或者在投诉建议发帖,您的支持,是我们发展的最大动力;投诉建议

恐惧散播器┾♂ 发表于 2019-9-11 02:53 | 显示全部楼层
666,这个可以支持!

温馨提示

记得善用社区搜索功能,那里可能会有你想要的资源;论坛站内搜索

如果你有什么需要的资源可以去资源求档发帖,求助社区的网友,我们会在第一时间给你回复哦;资源求档

对于本社区如果你有任何好建议或者相关合作可以随时与我们联系,或者在投诉建议发帖,您的支持,是我们发展的最大动力;投诉建议

作践自己 发表于 2019-9-11 09:29 来自手机 | 显示全部楼层
资源可用!谢谢分享!

温馨提示

记得善用社区搜索功能,那里可能会有你想要的资源;论坛站内搜索

如果你有什么需要的资源可以去资源求档发帖,求助社区的网友,我们会在第一时间给你回复哦;资源求档

对于本社区如果你有任何好建议或者相关合作可以随时与我们联系,或者在投诉建议发帖,您的支持,是我们发展的最大动力;投诉建议

伴凯终老 发表于 2019-9-11 09:29 来自手机 | 显示全部楼层
666,这个可以支持!

温馨提示

记得善用社区搜索功能,那里可能会有你想要的资源;论坛站内搜索

如果你有什么需要的资源可以去资源求档发帖,求助社区的网友,我们会在第一时间给你回复哦;资源求档

对于本社区如果你有任何好建议或者相关合作可以随时与我们联系,或者在投诉建议发帖,您的支持,是我们发展的最大动力;投诉建议

雨下的樱花★ 发表于 2019-9-11 15:39 来自手机 | 显示全部楼层
666,这个可以支持!

温馨提示

记得善用社区搜索功能,那里可能会有你想要的资源;论坛站内搜索

如果你有什么需要的资源可以去资源求档发帖,求助社区的网友,我们会在第一时间给你回复哦;资源求档

对于本社区如果你有任何好建议或者相关合作可以随时与我们联系,或者在投诉建议发帖,您的支持,是我们发展的最大动力;投诉建议

寂寞徘徊殇无泪 发表于 2019-9-11 21:52 | 显示全部楼层
谢谢楼主分享

温馨提示

记得善用社区搜索功能,那里可能会有你想要的资源;论坛站内搜索

如果你有什么需要的资源可以去资源求档发帖,求助社区的网友,我们会在第一时间给你回复哦;资源求档

对于本社区如果你有任何好建议或者相关合作可以随时与我们联系,或者在投诉建议发帖,您的支持,是我们发展的最大动力;投诉建议

二次元的妹子 发表于 2019-9-12 03:25 | 显示全部楼层
太赞了!!!LZ!!!!

温馨提示

记得善用社区搜索功能,那里可能会有你想要的资源;论坛站内搜索

如果你有什么需要的资源可以去资源求档发帖,求助社区的网友,我们会在第一时间给你回复哦;资源求档

对于本社区如果你有任何好建议或者相关合作可以随时与我们联系,或者在投诉建议发帖,您的支持,是我们发展的最大动力;投诉建议

泪点是你 发表于 2019-9-12 08:58 | 显示全部楼层
感谢分享

温馨提示

记得善用社区搜索功能,那里可能会有你想要的资源;论坛站内搜索

如果你有什么需要的资源可以去资源求档发帖,求助社区的网友,我们会在第一时间给你回复哦;资源求档

对于本社区如果你有任何好建议或者相关合作可以随时与我们联系,或者在投诉建议发帖,您的支持,是我们发展的最大动力;投诉建议

壊丫頭,没人嗳 发表于 2019-9-12 13:48 来自手机 | 显示全部楼层
多谢,谢谢楼主。

温馨提示

记得善用社区搜索功能,那里可能会有你想要的资源;论坛站内搜索

如果你有什么需要的资源可以去资源求档发帖,求助社区的网友,我们会在第一时间给你回复哦;资源求档

对于本社区如果你有任何好建议或者相关合作可以随时与我们联系,或者在投诉建议发帖,您的支持,是我们发展的最大动力;投诉建议

您需要登录后才可以回帖 登录 | 注册会员[Register]  

本版积分规则

发布主题
阅读排行更多+
快速回复 收藏帖子 返回列表
注册会员,尊享海量免费资源。 会员登录[Login] 注册[Register]
资源分享,资源共享。
官方Twitter
Twitter.com/8ziyuan
意见反馈:[email protected]

关注我们的官方Twitter

Powered by Discuz! © 2016-2019 8ziyuan.com Inc. Protected by CloudFlare | 小黑屋 | 8资源分享论坛 | RSS订阅 | 手机版 | 联系我们