请选择 进入手机版 | 继续访问电脑版

[剧情片] 无仁义之战4:顶上作战/无仁义之战 4 顶上作战 Police.Tactics.1...

  [复制链接]
唐章小小 发表于 2019-9-10 20:07 | 显示全部楼层 |阅读模式 打印 上一主题 下一主题
982fe35eda337.png

◎译  名 无仁义之战4:顶上作战 / 无仁义之战 4 顶上作战
◎片  名 仁義なき戦い 頂上作戦
◎年  代 1974
◎产  地 日本
◎类  别 剧情 / 动作 / 犯罪
◎语  言 日语
◎上映日期 1974-01-15
◎IMDb评分 7.5/10 from 798 users
◎IMDb链接 http://www.imdb.com/title/tt0071696
◎豆瓣评分 7.4/10 from 70 users
◎豆瓣链接 https://movie.douban.com/subject/2072155/
◎片  长 101分钟
◎导  演 深作欣二
◎编  剧 笠原和夫 Kazuo Kasahara
◎主  演 菅原文太
      小林旭
      梅宮辰夫
      黒沢年雄
      田中邦衛


◎标  签 深作欣二 | 日本 | 日本电影 | 黑帮 | 菅原文太 | 犯罪 | 电影 | 动作

◎简  介

  昭和38年,明石组系与神和会系两派发动的广岛战争愈演愈烈,期间不断有无辜市民遇害。受舆论和民众的巨大压力,警方动员所有力量,发动名为“顶上作战”的打击黑势力的行动。
  广能昌三(菅原文太 饰)为壮大实力,说服中立派义西会会长冈岛友次(小池朝雄 饰)加入明石一派。同时,广能组干部河西清(八名信夫 饰)被刺,双方战争扩大化,袭击事件频发。明石组岩井(梅宫辰夫 饰)出计借河西葬礼之际集结西日本同盟,给山守组突然袭击。然计划被打本(加藤武 饰)泄漏,山守义雄(金子信雄 饰)向警方检举,广能被捕。之后广能组成员遇袭、冈岛被刺等一系列事件使明石一派处于劣势。但很快义西会干部藤田正一(松方弘树 饰)填补空缺,和山守组少壮派武田明(小林旭 饰)展开新一轮对抗。
  而警方针对所有黑帮干部的行动也同时开始……
Video
ID : 1
Format : AVC
Format/Info : Advanced Video Codec
Format profile : [email protected]
Format settings : CABAC / 5 Ref Frames
Format settings, CABAC : Yes
Format settings, Reference frames : 5 frames
Codec ID : V_MPEG4/ISO/AVC
Duration : 1 h 41 min
Bit rate : 10.7 Mb/s
Width : 1 920 pixels
Height : 816 pixels
Display aspect ratio : 2.35:1
Frame rate mode : Constant
Frame rate : 23.976 (24000/1001) FPS
Color space : YUV
Chroma subsampling : 4:2:0
Bit depth : 8 bits
Scan type : Progressive
Bits/(Pixel*Frame) : 0.286
Stream size : 7.58 GiB (99%)
Writing library : x264 core 157 r2945 72db437
Encoding settings : cabac=1 / ref=5 / deblock=1:-3:-3 / analyse=0x3:0x133 / me=umh / subme=10 / psy=1 / psy_rd=1.00:0.00 / mixed_ref=1 / me_range=32 / chroma_me=1 / trellis=2 / 8x8dct=1 / cqm=0 / deadzone=21,11 / fast_pskip=0 / chroma_qp_offset=-2 / threads=6 / lookahead_threads=1 / sliced_threads=0 / nr=0 / decimate=0 / interlaced=0 / bluray_compat=0 / constrained_intra=0 / bframes=16 / b_pyramid=2 / b_adapt=2 / b_bias=0 / direct=3 / weightb=1 / open_gop=0 / weightp=2 / keyint=240 / keyint_min=24 / scenecut=40 / intra_refresh=0 / rc_lookahead=60 / rc=crf / mbtree=0 / crf=19.8 / qcomp=0.60 / qpmin=0 / qpmax=69 / qpstep=4 / vbv_maxrate=62500 / vbv_bufsize=78125 / crf_max=0.0 / nal_hrd=none / filler=0 / ip_ratio=1.40 / pb_ratio=1.30 / aq=2:1.00
Language : Japanese
Default : Yes
Forced : No
Color range : Limited
Color primaries : BT.709
Transfer characteristics : BT.709
Matrix coefficients : BT.709

Audio
ID : 2
Format : AAC LC
Format/Info : Advanced Audio Codec Low Complexity
Codec ID : A_AAC-2
Duration : 1 h 41 min
Bit rate : 148 kb/s
Channel(s) : 1 channel
Channel layout : C
Sampling rate : 48.0 kHz
Frame rate : 46.875 FPS (1024 SPF)
Compression mode : Lossy
Stream size : 107 MiB (1%)
Language : Japanese
Default : Yes
Forced : No

Text
ID : 3
Format : UTF-8
Codec ID : S_TEXT/UTF8
Codec ID/Info : UTF-8 Plain Text
Duration : 1 h 40 min
Bit rate : 58 b/s
Count of elements : 1277
Stream size : 43.5 KiB (0%)
Language : English
Default : Yes
Forced : No

Menu
00:00:00.000 : :Chapter 1
00:08:53.992 : :Chapter 2
00:16:02.837 : :Chapter 3
00:25:18.392 : :Chapter 4
00:33:21.374 : :Chapter 5
00:42:05.773 : :Chapter 6
00:50:34.114 : :Chapter 7
00:59:05.417 : :Chapter 8
01:06:52.592 : :Chapter 9
01:15:36.574 : :Chapter 10
01:23:50.442 : :Chapter 11
01:32:20.702 : :Chapter 12

971319b719521.png 049cc7b694aa7.png a447fceef5566.png




Police.Tactics.1974.JAPANESE.1080p.BluRay.x264-HANDJOB.torrent

39.06 KB, 下载次数: 1


【扫码访问手机版】

温馨提示

记得善用社区搜索功能,那里可能会有你想要的资源;论坛站内搜索

如果你有什么需要的资源可以去资源求档发帖,求助社区的网友,我们会在第一时间给你回复哦;资源求档

对于本社区如果你有任何好建议或者相关合作可以随时与我们联系,或者在投诉建议发帖,您的支持,是我们发展的最大动力;投诉建议

精彩评论39

无灵魂游走 发表于 2019-9-10 20:38 | 显示全部楼层
好资源终于找到了<<无仁义之战4:顶上作战/无仁义之战 4 顶上作战 Police.Tactics.1...>>

温馨提示

记得善用社区搜索功能,那里可能会有你想要的资源;论坛站内搜索

如果你有什么需要的资源可以去资源求档发帖,求助社区的网友,我们会在第一时间给你回复哦;资源求档

对于本社区如果你有任何好建议或者相关合作可以随时与我们联系,或者在投诉建议发帖,您的支持,是我们发展的最大动力;投诉建议

娇滴滴的女汉子@ 发表于 2019-9-11 03:09 | 显示全部楼层
多谢,谢谢楼主。

温馨提示

记得善用社区搜索功能,那里可能会有你想要的资源;论坛站内搜索

如果你有什么需要的资源可以去资源求档发帖,求助社区的网友,我们会在第一时间给你回复哦;资源求档

对于本社区如果你有任何好建议或者相关合作可以随时与我们联系,或者在投诉建议发帖,您的支持,是我们发展的最大动力;投诉建议

壊丫頭,没人嗳 发表于 2019-9-11 09:43 来自手机 | 显示全部楼层
金币不够了回复有金币吗

温馨提示

记得善用社区搜索功能,那里可能会有你想要的资源;论坛站内搜索

如果你有什么需要的资源可以去资源求档发帖,求助社区的网友,我们会在第一时间给你回复哦;资源求档

对于本社区如果你有任何好建议或者相关合作可以随时与我们联系,或者在投诉建议发帖,您的支持,是我们发展的最大动力;投诉建议

让痛无所 发表于 2019-9-11 15:53 | 显示全部楼层
感谢分享啊

温馨提示

记得善用社区搜索功能,那里可能会有你想要的资源;论坛站内搜索

如果你有什么需要的资源可以去资源求档发帖,求助社区的网友,我们会在第一时间给你回复哦;资源求档

对于本社区如果你有任何好建议或者相关合作可以随时与我们联系,或者在投诉建议发帖,您的支持,是我们发展的最大动力;投诉建议

带他滚 发表于 2019-9-11 22:13 | 显示全部楼层
找了好久终于找到了

温馨提示

记得善用社区搜索功能,那里可能会有你想要的资源;论坛站内搜索

如果你有什么需要的资源可以去资源求档发帖,求助社区的网友,我们会在第一时间给你回复哦;资源求档

对于本社区如果你有任何好建议或者相关合作可以随时与我们联系,或者在投诉建议发帖,您的支持,是我们发展的最大动力;投诉建议

雨下的樱花★ 发表于 2019-9-12 03:50 来自手机 | 显示全部楼层
谢谢楼主分享

温馨提示

记得善用社区搜索功能,那里可能会有你想要的资源;论坛站内搜索

如果你有什么需要的资源可以去资源求档发帖,求助社区的网友,我们会在第一时间给你回复哦;资源求档

对于本社区如果你有任何好建议或者相关合作可以随时与我们联系,或者在投诉建议发帖,您的支持,是我们发展的最大动力;投诉建议

限量版女汉子i 发表于 2019-9-12 09:12 来自手机 | 显示全部楼层
<<无仁义之战4:顶上作战/无仁义之战 4 顶上作战 Police.Tactics.1...>>

温馨提示

记得善用社区搜索功能,那里可能会有你想要的资源;论坛站内搜索

如果你有什么需要的资源可以去资源求档发帖,求助社区的网友,我们会在第一时间给你回复哦;资源求档

对于本社区如果你有任何好建议或者相关合作可以随时与我们联系,或者在投诉建议发帖,您的支持,是我们发展的最大动力;投诉建议

胖妞i 发表于 2019-9-12 14:05 | 显示全部楼层
十分感谢

温馨提示

记得善用社区搜索功能,那里可能会有你想要的资源;论坛站内搜索

如果你有什么需要的资源可以去资源求档发帖,求助社区的网友,我们会在第一时间给你回复哦;资源求档

对于本社区如果你有任何好建议或者相关合作可以随时与我们联系,或者在投诉建议发帖,您的支持,是我们发展的最大动力;投诉建议

铷裹鰅見妳 发表于 2019-9-12 18:54 | 显示全部楼层
前排支持 感谢分享

温馨提示

记得善用社区搜索功能,那里可能会有你想要的资源;论坛站内搜索

如果你有什么需要的资源可以去资源求档发帖,求助社区的网友,我们会在第一时间给你回复哦;资源求档

对于本社区如果你有任何好建议或者相关合作可以随时与我们联系,或者在投诉建议发帖,您的支持,是我们发展的最大动力;投诉建议

您需要登录后才可以回帖 登录 | 注册会员[Register]  

本版积分规则

发布主题
阅读排行更多+
快速回复 收藏帖子 返回列表
注册会员,尊享海量资源免费资源。 会员登录[Login] 注册[Register]
资源分享,资源共享。
官方Twitter
Twitter.com/8ziyuan
意见反馈:[email protected]

关注我们的官方Twitter

Powered by Discuz! © 2016-2019 8ziyuan.com Inc. Protected by CloudFlare | 小黑屋 | 8资源分享论坛 | RSS订阅 | 手机版 | 联系我们