请选择 进入手机版 | 继续访问电脑版

[剧情片] 潘神的迷宫 Pans.Labyrinth.2006.REMASTERED.SPANISH.1080p.BluRay.x264.DTS-..

  [复制链接]
唐章小小 发表于 2019-10-4 15:21 | 显示全部楼层 |阅读模式 打印 上一主题 下一主题
dfb8689d74620.png

◎译  名 潘神的迷宫 / Pan's Labyrinth / 奇幻迷宫 / 潘的迷宫 / 羊男的迷宫 / 魔间迷宫
◎片  名 El laberinto del fauno
◎年  代 2006
◎产  地 西班牙 / 墨西哥 / 美国
◎类  别 剧情 / 悬疑 / 战争 / 奇幻
◎语  言 西班牙语
◎上映日期 2006-10-11(西班牙)
◎IMDb评分 8.2/10 from 580358 users
◎IMDb链接 http://www.imdb.com/title/tt0457430
◎豆瓣评分 7.8/10 from 157304 users
◎豆瓣链接 https://movie.douban.com/subject/1767042/
◎片  长 118分钟(英国)
◎导  演 吉尔莫·德尔·托罗 Guillermo del Toro
◎编  剧 吉尔莫·德尔·托罗 Guillermo del Toro
◎主  演 伊万娜·巴克罗 Ivana Baquero
      塞吉·洛佩兹 Sergi López
      玛丽贝尔· 瓦度 Maribel Verdú
      道格·琼斯 Doug Jones
      艾妮安娜·姬儿 Ariadna Gil


◎标  签 魔幻 | 西班牙 | 奇幻 | 童话 | 潘神的迷宫 | 战争 | 2006 | 电影

◎简  介

  12岁女孩子奥菲丽娅(伊万娜?巴克尔洛 饰)有一个凶暴的法西斯军官继父维达(塞吉?洛佩兹 饰),维达的任务就是镇压反抗者,研究各种刑具来折磨残害被抓来的异见人士,奥菲丽娅每天都目睹让人不愉快的事件。眼看着冷酷的继父和其党羽每日作恶还以此为乐,母亲又身怀六甲患病在床,被孤独感和目睹暴行的痛苦困扰的奥菲丽娅开始沉浸在自己的幻想中聊以自慰。
  一天,奥菲丽娅遇到了迷宫的守护者,潘神(道格?琼斯 饰)。潘神告诉她,她其实是奇幻王国失踪的公主,要想恢复身份,必须通过三个危险的考验。

◎获奖情况

  第79届奥斯卡金像奖(2007)
  最佳原创剧本(提名) 吉尔莫·德尔·托罗
  最佳外语片(提名) 吉尔莫·德尔·托罗
  最佳摄影 吉列尔莫·纳瓦罗
  最佳艺术指导 尤吉尼奥·卡巴莱罗 / Pilar Revuelta
  最佳化妆 David Martí / Montse Ribé
  最佳原创配乐(提名) 哈维尔·纳瓦雷特

  第59届戛纳电影节(2006)
  主竞赛单元 金棕榈奖(提名) 吉尔莫·德尔·托罗

  第64届金球奖(2007)
  电影类 最佳外语片(提名)
Video
ID : 1
Format : AVC
Format/Info : Advanced Video Codec
Format profile : [email protected]
Format settings : CABAC / 4 Ref Frames
Format settings, CABAC : Yes
Format settings, Reference frames : 4 frames
Codec ID : V_MPEG4/ISO/AVC
Duration : 1 h 59 min
Bit rate : 12.9 Mb/s
Width : 1 920 pixels
Height : 1 040 pixels
Display aspect ratio : 1.85:1
Frame rate mode : Constant
Frame rate : 23.976 (24000/1001) FPS
Color space : YUV
Chroma subsampling : 4:2:0
Bit depth : 8 bits
Scan type : Progressive
Bits/(Pixel*Frame) : 0.270
Stream size : 10.8 GiB (71%)
Title : Pans.Labyrinth.2006.REMASTERED.SPANISH.1080p.BluRay.x264.DTS-HD.MA.7.1-FGT
Writing library : x264 core 148 r2721 72d53ab
Encoding settings : cabac=1 / ref=4 / deblock=1:-3:-3 / analyse=0x3:0x113 / me=umh / subme=8 / psy=1 / psy_rd=1.00:0.00 / mixed_ref=1 / me_range=16 / chroma_me=1 / trellis=2 / 8x8dct=1 / cqm=0 / deadzone=21,11 / fast_pskip=1 / chroma_qp_offset=-2 / threads=24 / lookahead_threads=4 / sliced_threads=0 / nr=0 / decimate=1 / interlaced=0 / bluray_compat=0 / constrained_intra=0 / bframes=3 / b_pyramid=2 / b_adapt=1 / b_bias=0 / direct=3 / weightb=1 / open_gop=0 / weightp=2 / keyint=240 / keyint_min=24 / scenecut=40 / intra_refresh=0 / rc_lookahead=50 / rc=2pass / mbtree=1 / bitrate=12903 / ratetol=1.0 / qcomp=0.60 / qpmin=0 / qpmax=69 / qpstep=4 / cplxblur=20.0 / qblur=0.5 / ip_ratio=1.40 / aq=1:1.00
Default : Yes
Forced : No

Audio
ID : 2
Format : DTS XLL
Format/Info : Digital Theater Systems
Commercial name : DTS-HD Master Audio
Codec ID : A_DTS
Duration : 1 h 59 min
Bit rate mode : Variable
Bit rate : 5 169 kb/s
Channel(s) : 8 channels
Channel layout : C L R LFE Lb Rb Lss Rss
Sampling rate : 48.0 kHz
Frame rate : 93.750 FPS (512 SPF)
Bit depth : 24 bits
Compression mode : Lossless
Stream size : 4.31 GiB (29%)
Title : Pans.Labyrinth.2006.REMASTERED.SPANISH.1080p.BluRay.x264.DTS-HD.MA.7.1-FGT
Language : Spanish
Default : Yes
Forced : No

Text #1
ID : 3
Format : UTF-8
Codec ID : S_TEXT/UTF8
Codec ID/Info : UTF-8 Plain Text
Duration : 1 h 51 min
Bit rate : 31 b/s
Count of elements : 869
Stream size : 26.0 KiB (0%)
Title : English-SRT
Language : English
Default : Yes
Forced : No

Text #2
ID : 4
Format : PGS
Muxing mode : zlib
Codec ID : S_HDMV/PGS
Codec ID/Info : Picture based subtitle format used on BDs/HD-DVDs
Duration : 1 h 51 min
Bit rate : 26.9 kb/s
Count of elements : 1738
Stream size : 21.4 MiB (0%)
Title : English-PGS
Language : English
Default : No
Forced : No

Menu
00:00:00.000 : en:Chapter 01
00:06:03.112 : en:Chapter 02
00:09:43.332 : en:Chapter 03
00:11:42.034 : en:Chapter 04
00:14:44.174 : en:Chapter 05
00:18:21.892 : en:Chapter 06
00:25:04.085 : en:Chapter 07
00:31:24.674 : en:Chapter 08
00:38:45.698 : en:Chapter 09
00:43:08.586 : en:Chapter 10
00:46:29.161 : en:Chapter 11
00:48:58.769 : en:Chapter 12
00:52:22.722 : en:Chapter 13
00:55:50.472 : en:Chapter 14
01:02:48.222 : en:Chapter 15
01:04:52.054 : en:Chapter 16
01:08:09.460 : en:Chapter 17
01:13:08.342 : en:Chapter 18
01:16:56.737 : en:Chapter 19
01:21:33.179 : en:Chapter 20
01:27:10.058 : en:Chapter 21
01:31:40.328 : en:Chapter 22
01:36:39.001 : en:Chapter 23
01:41:23.368 : en:Chapter 24
01:42:02.032 : en:Chapter 25
01:44:10.285 : en:Chapter 26
01:52:31.494 : en:Chapter 27

95ffe8ae4ffc1.png 45049b88f5473.png 8f7486dc113cd.png

【扫码访问手机版】

温馨提示

记得善用社区搜索功能,那里可能会有你想要的资源;论坛站内搜索

如果你有什么需要的资源可以去资源求档发帖,求助社区的网友,我们会在第一时间给你回复哦;资源求档

对于本社区如果你有任何好建议或者相关合作可以随时与我们联系,或者在投诉建议发帖,您的支持,是我们发展的最大动力;投诉建议

精彩评论13

晚眉妆 发表于 2019-10-4 15:26 | 显示全部楼层
多谢分享

温馨提示

记得善用社区搜索功能,那里可能会有你想要的资源;论坛站内搜索

如果你有什么需要的资源可以去资源求档发帖,求助社区的网友,我们会在第一时间给你回复哦;资源求档

对于本社区如果你有任何好建议或者相关合作可以随时与我们联系,或者在投诉建议发帖,您的支持,是我们发展的最大动力;投诉建议

殇夜ο斤风 发表于 2019-10-4 19:04 | 显示全部楼层
谢谢楼主的分享~~收藏了~~!

温馨提示

记得善用社区搜索功能,那里可能会有你想要的资源;论坛站内搜索

如果你有什么需要的资源可以去资源求档发帖,求助社区的网友,我们会在第一时间给你回复哦;资源求档

对于本社区如果你有任何好建议或者相关合作可以随时与我们联系,或者在投诉建议发帖,您的支持,是我们发展的最大动力;投诉建议

菇凉ˉAmor 发表于 2019-10-4 22:22 | 显示全部楼层
谢谢楼主的分享~~收藏了~~!

温馨提示

记得善用社区搜索功能,那里可能会有你想要的资源;论坛站内搜索

如果你有什么需要的资源可以去资源求档发帖,求助社区的网友,我们会在第一时间给你回复哦;资源求档

对于本社区如果你有任何好建议或者相关合作可以随时与我们联系,或者在投诉建议发帖,您的支持,是我们发展的最大动力;投诉建议

作践自己 发表于 2019-10-5 01:32 来自手机 | 显示全部楼层
666,这个可以支持!

温馨提示

记得善用社区搜索功能,那里可能会有你想要的资源;论坛站内搜索

如果你有什么需要的资源可以去资源求档发帖,求助社区的网友,我们会在第一时间给你回复哦;资源求档

对于本社区如果你有任何好建议或者相关合作可以随时与我们联系,或者在投诉建议发帖,您的支持,是我们发展的最大动力;投诉建议

娇滴滴的女汉子@ 发表于 2019-10-5 04:49 | 显示全部楼层
多谢,谢谢楼主。

温馨提示

记得善用社区搜索功能,那里可能会有你想要的资源;论坛站内搜索

如果你有什么需要的资源可以去资源求档发帖,求助社区的网友,我们会在第一时间给你回复哦;资源求档

对于本社区如果你有任何好建议或者相关合作可以随时与我们联系,或者在投诉建议发帖,您的支持,是我们发展的最大动力;投诉建议

梵以姑娘i 发表于 2019-10-5 08:12 | 显示全部楼层
感谢分享啊

温馨提示

记得善用社区搜索功能,那里可能会有你想要的资源;论坛站内搜索

如果你有什么需要的资源可以去资源求档发帖,求助社区的网友,我们会在第一时间给你回复哦;资源求档

对于本社区如果你有任何好建议或者相关合作可以随时与我们联系,或者在投诉建议发帖,您的支持,是我们发展的最大动力;投诉建议

螎在ぺ長風裏 发表于 2019-10-5 11:27 | 显示全部楼层
<<潘神的迷宫 Pans.Labyrinth.2006.REMASTERED.SPANISH.1080p.BluRay.x264.DTS-..>>

温馨提示

记得善用社区搜索功能,那里可能会有你想要的资源;论坛站内搜索

如果你有什么需要的资源可以去资源求档发帖,求助社区的网友,我们会在第一时间给你回复哦;资源求档

对于本社区如果你有任何好建议或者相关合作可以随时与我们联系,或者在投诉建议发帖,您的支持,是我们发展的最大动力;投诉建议

灵魂—堕落者 发表于 2019-10-8 15:19 来自手机 | 显示全部楼层
强烈感谢

温馨提示

记得善用社区搜索功能,那里可能会有你想要的资源;论坛站内搜索

如果你有什么需要的资源可以去资源求档发帖,求助社区的网友,我们会在第一时间给你回复哦;资源求档

对于本社区如果你有任何好建议或者相关合作可以随时与我们联系,或者在投诉建议发帖,您的支持,是我们发展的最大动力;投诉建议

請把小熊还给我 发表于 2019-10-9 15:03 | 显示全部楼层
谢谢楼主分享

温馨提示

记得善用社区搜索功能,那里可能会有你想要的资源;论坛站内搜索

如果你有什么需要的资源可以去资源求档发帖,求助社区的网友,我们会在第一时间给你回复哦;资源求档

对于本社区如果你有任何好建议或者相关合作可以随时与我们联系,或者在投诉建议发帖,您的支持,是我们发展的最大动力;投诉建议

您需要登录后才可以回帖 登录 | 注册会员[Register]  

本版积分规则

发布主题
阅读排行更多+
快速回复 收藏帖子 返回列表
注册会员,尊享海量免费资源。 会员登录[Login] 注册[Register]
资源分享,资源共享。
官方Twitter
Twitter.com/8ziyuan
意见反馈:[email protected]

关注我们的官方Twitter

Powered by Discuz! © 2016-2019 8ziyuan.com Inc. Protected by CloudFlare | 小黑屋 | 8资源分享论坛 | RSS订阅 | 手机版 | 联系我们