请选择 进入手机版 | 继续访问电脑版

[动作片] [第一滴血3 / 兰博3][BD-MP4/4.2GB][原声英语中英双字幕][1080p]

[复制链接]
唐章小小 发表于 2019-11-26 00:32 | 显示全部楼层 |阅读模式 打印 上一主题 下一主题
f2a74a7b562fd1aaefcc7fe898209429.jpg

◎译  名 第一滴血3 / 兰博3
◎片  名 Rambo III
◎年  代 1988
◎产  地 美国
◎类  别 动作 / 惊悚 / 冒险
◎语  言 英语 / 俄语
◎上映日期 1988-05-25(美国)
◎IMDb评分  5.8/10 from 111003 users
◎豆瓣评分 7.5/10 from 25852 users
◎片  长 102 分钟
◎导  演 Peter MacDonald
◎编  剧 David Morrell / Sylvester Stallone / Sheldon Lettich
◎主  演 Sylvester Stallone
       Richard Crenna
       Marc de Jonge
       Kurtwood Smith
       Spiros Focás
       Sasson Gabai


◎标  签 动作 | 史泰龙 | 美国 | 战争 | 第一滴血 | 美国电影 | 经典 | 1988

◎简  介  

  历经无数战火与生死考验,孔武有力的豪情勇士约翰·兰博(西尔维斯特·史泰龙 Sylvester Stallone 饰)放下手中的杀人武器,在泰国过起了平静的修行生活。这一日,特劳特曼上校(理查德·克里纳 Richard Crenna饰)突然出现在他面前。此前不久,上校受命率部队前往阿富汗,协助当地的圣战勇士反抗苏联人的入侵。虽然照片中阿富汗平民饱受外敌侵略和蹂躏的情景触目惊心,但兰博还是拒绝了上校的邀请。某晚,特劳特曼的部队在执行任务途中遭到苏联军队的伏击,其本人也不幸沦为阶下囚。得知这一消息,兰博再也无法静观其变。浴血战士重披战甲,只身闯入充满凶险的阿富汗腹地,展开一场紧张纷呈的绝命营救……
  本片获1989年金酸梅最差男主角奖。
71d8bba03ea65a2b7410960a178d117a.jpg
f1842f84b489828090ab7ceca69bf1c4.jpg
777d6333ab4954f22261fe47eaa3652b.jpg
02533dc451ca51651f38c95b2c6430cf.jpg

General
Unique ID                   : 184574161140116687329861793265838983995 (0x8ADBB0BD65FEF556A922E8856B0C0B3B)
Complete name               : D:t[微信公众号:匆匆电影]第一滴血3[未删减]Rambo.III.1988.REMASTERED.1080p.BluRay.X264.aac.5.1.原声英语中英双字幕.Eng.CHS[微信公众号:匆匆电影]第一滴血3[未删减]Rambo.III.1988.REMASTERED.1080p.BluRay.X264.aac.5.1.原声英语中英双字幕.Eng.CHS.mp4
Format                      : Matroska
Format version              : Version 2
File size                   : 3.99 GiB
Duration                    : 1 h 41 min
Overall bit rate            : 5 637 kb/s
Encoded date                : UTC 2019-11-25 10:08:05
Writing application         : mkvmerge v5.2.1 ('A Far Off Place') built on Jan  2 2012 23:21:10
Writing library             : libebml v1.2.3 + libmatroska v1.3.0
FileExtension_Invalid       : mkv mk3d mka mks

Video
ID                          : 1
Format                      : AVC
Format/Info                 : Advanced Video Codec
Format profile              : [email protected]
Format settings             : CABAC / 4 Ref Frames
Format settings, CABAC      : Yes
Format settings, ReFrames   : 4 frames
Muxing mode                 : Header stripping
Codec ID                    : V_MPEG4/ISO/AVC
Duration                    : 1 h 41 min
Bit rate                    : 4 999 kb/s
Width                       : 1 920 pixels
Height                      : 1 080 pixels
Display aspect ratio        : 16:9
Frame rate mode             : Constant
Frame rate                  : 24.000 FPS
Color space                 : YUV
Chroma subsampling          : 4:2:0
Bit depth                   : 8 bits
Scan type                   : Progressive
Bits/(Pixel*Frame)          : 0.100
Stream size                 : 3.46 GiB (87%)
Writing library             : x264 core 120 r2164 da19765
Encoding settings           : cabac=1 / ref=4 / deblock=1:-4:-3 / analyse=0x3:0x133 / me=hex / subme=7 / psy=1 / psy_rd=0.00:0.00 / mixed_ref=1 / me_range=16 / chroma_me=1 / trellis=2 / 8x8dct=1 / cqm=0 / deadzone=21,11 / fast_pskip=0 / chroma_qp_offset=0 / threads=12 / sliced_threads=0 / nr=0 / decimate=1 / interlaced=0 / bluray_compat=0 / constrained_intra=0 / bframes=3 / b_pyramid=2 / b_adapt=1 / b_bias=0 / direct=1 / weightb=1 / open_gop=0 / weightp=2 / keyint=240 / keyint_min=24 / scenecut=40 / intra_refresh=0 / rc_lookahead=40 / rc=2pass / mbtree=1 / bitrate=4999 / ratetol=1.0 / qcomp=0.60 / qpmin=0 / qpmax=69 / qpstep=4 / cplxblur=20.0 / qblur=0.5 / ip_ratio=1.40 / aq=1:1.00
Default                     : Yes
Forced                      : No

Audio
ID                          : 2
Format                      : AC-3
Format/Info                 : Audio Coding 3
Commercial name             : Dolby Digital
Muxing mode                 : Header stripping
Codec ID                    : A_AC3
Duration                    : 1 h 41 min
Bit rate mode               : Constant
Bit rate                    : 640 kb/s
Channel(s)                  : 6 channels
Channel layout              : L R C LFE Ls Rs
Sampling rate               : 48.0 kHz
Frame rate                  : 31.250 FPS (1536 SPF)
Bit depth                   : 16 bits
Compression mode            : Lossy
Stream size                 : 464 MiB (11%)
Title                       : 【关注微信公众号:匆匆电影  微信号 sc6788sc 朋友圈分享】
Service kind                : Complete Main
Default                     : Yes
Forced                      : No

第一滴血3[未删减]Rambo.III.1988.REMASTERED.1080p.BluRay.X264.aac.5.1.原声英语中.torrent

83.26 KB, 下载次数: 4


【扫码访问手机版】

温馨提示

记得善用社区搜索功能,那里可能会有你想要的资源;论坛站内搜索

如果你有什么需要的资源可以去资源求档发帖,求助社区的网友,我们会在第一时间给你回复哦;资源求档

对于本社区如果你有任何好建议或者相关合作可以随时与我们联系,或者在投诉建议发帖,您的支持,是我们发展的最大动力;投诉建议

精彩评论5

仦精灵 发表于 2019-11-26 01:07 | 显示全部楼层
强烈感谢

温馨提示

记得善用社区搜索功能,那里可能会有你想要的资源;论坛站内搜索

如果你有什么需要的资源可以去资源求档发帖,求助社区的网友,我们会在第一时间给你回复哦;资源求档

对于本社区如果你有任何好建议或者相关合作可以随时与我们联系,或者在投诉建议发帖,您的支持,是我们发展的最大动力;投诉建议

错乱的人生 发表于 2019-11-26 16:34 | 显示全部楼层
谢谢楼主分享

温馨提示

记得善用社区搜索功能,那里可能会有你想要的资源;论坛站内搜索

如果你有什么需要的资源可以去资源求档发帖,求助社区的网友,我们会在第一时间给你回复哦;资源求档

对于本社区如果你有任何好建议或者相关合作可以随时与我们联系,或者在投诉建议发帖,您的支持,是我们发展的最大动力;投诉建议

祭奠‘这羁绊 发表于 2019-11-29 17:22 来自手机 | 显示全部楼层
666,这个可以支持!

温馨提示

记得善用社区搜索功能,那里可能会有你想要的资源;论坛站内搜索

如果你有什么需要的资源可以去资源求档发帖,求助社区的网友,我们会在第一时间给你回复哦;资源求档

对于本社区如果你有任何好建议或者相关合作可以随时与我们联系,或者在投诉建议发帖,您的支持,是我们发展的最大动力;投诉建议

晚眉妆 发表于 2019-12-3 16:20 | 显示全部楼层
资源可用!谢谢分享!

温馨提示

记得善用社区搜索功能,那里可能会有你想要的资源;论坛站内搜索

如果你有什么需要的资源可以去资源求档发帖,求助社区的网友,我们会在第一时间给你回复哦;资源求档

对于本社区如果你有任何好建议或者相关合作可以随时与我们联系,或者在投诉建议发帖,您的支持,是我们发展的最大动力;投诉建议

烟久 发表于 2019-12-9 23:51 来自手机 | 显示全部楼层
多谢,谢谢楼主。

温馨提示

记得善用社区搜索功能,那里可能会有你想要的资源;论坛站内搜索

如果你有什么需要的资源可以去资源求档发帖,求助社区的网友,我们会在第一时间给你回复哦;资源求档

对于本社区如果你有任何好建议或者相关合作可以随时与我们联系,或者在投诉建议发帖,您的支持,是我们发展的最大动力;投诉建议

您需要登录后才可以回帖 登录 | 注册会员[Register]  

本版积分规则

发布主题
阅读排行更多+
快速回复 收藏帖子 返回列表
注册会员,尊享海量免费资源。 会员登录[Login] 注册[Register]
资源分享,资源共享。
官方Twitter
Twitter.com/8ziyuan
意见反馈:[email protected]

关注我们的官方Twitter

Powered by Discuz! © 2016-2019 8ziyuan.com Inc. Protected by CloudFlare | 小黑屋 | 8资源分享论坛 | RSS订阅 | 手机版 | 联系我们