请选择 进入手机版 | 继续访问电脑版

[科幻片] 回忆录:异形起源故事/回异:异形诞生 Memory.The.Origins.Of.Alien...

[复制链接]
唐章小小官方 发表于 2020-1-8 18:06 | 显示全部楼层 |阅读模式 打印 上一主题 下一主题


◎译  名 回忆录:异形起源故事 / 回异:异形诞生(台) / 异形的诞生(港)
◎片  名 Memory: The Origins of Alien
◎年  代 2019
◎产  地 美国
◎类  别 纪录片
◎语  言 英语
◎上映日期 2019-01-24(圣丹斯电影节) / 2019-10-04(美国)
◎IMDb评分 6.7/10 from 1245 users
◎IMDb链接 https://www.imdb.com/title/tt8974964
◎豆瓣评分 7.5/10 from 112 users
◎豆瓣链接 https://movie.douban.com/subject/30391774/
◎片  长 95分钟(圣丹斯电影节)
◎导  演 亚历山大·欧-菲利普 Alexandre O. Philippe
◎编  剧 亚历山大·欧-菲利普 Alexandre O. Philippe
◎主  演 维罗尼卡·卡维特 Veronica Cartwright
      罗杰·克里斯蒂安 Roger Christian
      罗杰·科曼 Roger Corman
      戴安娜·奥班农 Diane O'Bannon
      特里·罗林斯 Terry Rawlings
      罗纳德·舒塞特 Ronald Shusett
      汤姆·斯凯里特 Tom Skerritt
      Bijan Aalam
      Tim Boxell
      Axelle Carolyn
      Mickey Faerch
      Henry Jenkins
      William Linn
      Ben Mankiewicz
      Adam Egypt Mortimer
      Shannon Muchow
      Rhoda Pell
      Ivor Powell


◎标  签 纪录片 | 异形 | 美国 | 科幻 | 2019 | 纪录 | 恐怖 | Documentary

◎简  介

  2019年是经典科幻片《异形》上映40周年纪念。亚历山大·欧·菲利普倾心力作解密异形的源起。从最原始的构思和草图,以及丹·欧班农原初的29页剧本说起,探索佐杜洛夫斯基、寄生学、希腊与埃及神话、地下漫画的诸多影响。影片有着丰富的内容、深刻的探讨,是一场科幻电影迷不可错过的盛宴。
Video
ID : 1
Format : AVC
Format/Info : Advanced Video Codec
Format profile : [email protected]
Format settings : CABAC / 4 Ref Frames
Format settings, CABAC : Yes
Format settings, Reference frames : 4 frames
Codec ID : V_MPEG4/ISO/AVC
Duration : 1 h 33 min
Bit rate : 11.5 Mb/s
Width : 1 920 pixels
Height : 804 pixels
Display aspect ratio : 2.40:1
Frame rate mode : Constant
Frame rate : 23.976 (24000/1001) FPS
Color space : YUV
Chroma subsampling : 4:2:0
Bit depth : 8 bits
Scan type : Progressive
Bits/(Pixel*Frame) : 0.311
Stream size : 7.48 GiB (77%)
Title : Memory.The.Origins.Of.Alien.2019.1080p.BluRay.x264.DTS-HD.MA.5.1-FGT
Writing library : x264 core 148 r2795M aaa9aa8
Encoding settings : cabac=1 / ref=4 / deblock=1:-2:-2 / analyse=0x3:0x113 / me=umh / subme=9 / psy=1 / psy_rd=1.00:0.15 / mixed_ref=1 / me_range=16 / chroma_me=1 / trellis=2 / 8x8dct=1 / cqm=0 / deadzone=21,11 / fast_pskip=1 / chroma_qp_offset=-3 / threads=72 / lookahead_threads=3 / sliced_threads=0 / nr=0 / decimate=1 / interlaced=0 / bluray_compat=0 / constrained_intra=0 / bframes=3 / b_pyramid=2 / b_adapt=1 / b_bias=0 / direct=3 / weightb=1 / open_gop=0 / weightp=2 / keyint=250 / keyint_min=25 / scenecut=40 / intra_refresh=0 / rc_lookahead=50 / rc=2pass / mbtree=1 / bitrate=11500 / ratetol=1.0 / qcomp=0.60 / qpmin=0 / qpmax=69 / qpstep=4 / cplxblur=20.0 / qblur=0.5 / vbv_maxrate=31250 / vbv_bufsize=31250 / nal_hrd=none / filler=0 / ip_ratio=1.40 / aq=1:1.00
Language : English
Default : Yes
Forced : No

Audio
ID : 2
Format : DTS XLL
Format/Info : Digital Theater Systems
Commercial name : DTS-HD Master Audio
Codec ID : A_DTS
Duration : 1 h 33 min
Bit rate mode : Variable
Bit rate : 3 508 kb/s
Channel(s) : 6 channels
Channel layout : C L R Ls Rs LFE
Sampling rate : 48.0 kHz
Frame rate : 93.750 FPS (512 SPF)
Bit depth : 24 bits
Compression mode : Lossless
Stream size : 2.29 GiB (23%)
Title : Memory.The.Origins.Of.Alien.2019.1080p.BluRay.x264.DTS-HD.MA.5.1-FGT
Language : English
Default : Yes
Forced : No

Text
ID : 3
Format : UTF-8
Codec ID : S_TEXT/UTF8
Codec ID/Info : UTF-8 Plain Text
Duration : 1 h 24 min
Bit rate : 108 b/s
Count of elements : 1741
Stream size : 67.0 KiB (0%)
Language : English
Default : Yes
Forced : No

Menu
00:00:00.000 : en:Chapter 1
00:06:05.490 : en:Chapter 2
00:15:08.407 : en:Chapter 3
00:22:31.141 : en:Chapter 4
00:31:13.622 : en:Chapter 5
00:38:48.618 : en:Chapter 6
00:48:18.729 : en:Chapter 7
00:55:02.466 : en:Chapter 8
01:04:09.512 : en:Chapter 9
01:10:44.782 : en:Chapter 10
01:21:37.101 : en:Chapter 11
01:27:57.731 : en:Chapter 12


Memory.The.Origins.Of.Alien.2019.1080p.BluRay.x264.DTS-HD.MA.5.1-FGT.torrent

49.4 KB, 下载次数: 4


【扫码访问手机版】

温馨提示

记得善用社区搜索功能,那里可能会有你想要的资源;论坛站内搜索

如果你有什么需要的资源可以去资源求档发帖,求助社区的网友,我们会在第一时间给你回复哦;资源求档

对于本社区如果你有任何好建议或者相关合作可以随时与我们联系,或者在投诉建议发帖,您的支持,是我们发展的最大动力;投诉建议

精彩评论2

限量版女汉子i 发表于 2020-1-8 18:46 来自手机 | 显示全部楼层
多谢,谢谢楼主。

温馨提示

记得善用社区搜索功能,那里可能会有你想要的资源;论坛站内搜索

如果你有什么需要的资源可以去资源求档发帖,求助社区的网友,我们会在第一时间给你回复哦;资源求档

对于本社区如果你有任何好建议或者相关合作可以随时与我们联系,或者在投诉建议发帖,您的支持,是我们发展的最大动力;投诉建议

泪点是你 发表于 2020-1-16 22:09 | 显示全部楼层
感谢分享

温馨提示

记得善用社区搜索功能,那里可能会有你想要的资源;论坛站内搜索

如果你有什么需要的资源可以去资源求档发帖,求助社区的网友,我们会在第一时间给你回复哦;资源求档

对于本社区如果你有任何好建议或者相关合作可以随时与我们联系,或者在投诉建议发帖,您的支持,是我们发展的最大动力;投诉建议

您需要登录后才可以回帖 登录 | 注册会员[Register]  

本版积分规则

发布主题
阅读排行更多+
快速回复 收藏帖子 返回列表
注册会员,尊享海量免费资源。 会员登录[Login] 注册[Register]
资源分享,资源共享。
官方Twitter
Twitter.com/8ziyuan
意见反馈:[email protected]

关注我们的官方Twitter

Powered by Discuz! © 2016-2019 8ziyuan.com Inc. Protected by CloudFlare | 小黑屋 | 8资源分享论坛 | RSS订阅 | 手机版 | 联系我们