请选择 进入手机版 | 继续访问电脑版

[其他] 把我唱给你听——刘德华.2022.抖音线上直播演唱会(X264/mp4...

  [复制链接]
唐章小小社区官方认证 发表于 2022-9-7 23:01 | 显示全部楼层 |阅读模式 打印 上一主题 下一主题
bc2fbc361da3e8357a466eb04e507bc4.jpg

◎译  名 Sing Me To You
◎片  名 把我唱给你听
◎年  代 2022
◎产  地 中国大陆
◎语  言 汉语普通话
◎上映日期 2022-09-03(中国大陆)

◎简  介 

  刘德华「把我唱给你听」抖音专场线上直播。

曲目:

01. 笨小孩

02. 如果你是我的傳說

03. 情深的一句

04. 友誼歷久一樣濃

05. 影帝無用

06. 冰雨

07. 來生緣

08. 兄弟不懷疑

09. 男人哭吧不是罪

10. 如果有一天

11. 天天想你

12. 心肝寶貝

13. 你是我一生中最大的驕傲

14. 愛你一萬年

15. 17歲

16. 請你莫忘我

General

Complete name               : 把我唱给你听-刘德华抖音直播.Sing.Me.To.You-Andy.Lau.2022.1080P.WEB-DL.X264.AAC-Vampire.mp4
Format                      : MPEG-4
Format profile              : Base Media
Codec ID                    : isom (isom/iso2/avc1/mp41)
File size                   : 10.1 GiB
Duration                    : 2 h 55 min
Overall bit rate mode       : Constant
Overall bit rate            : 8 266 kb/s
Movie name                  : 把我唱给你听-刘德华抖音直播/Sing.Me.To.You-Andy.Lau
Album                       : 抖音直播系列
Album/Performer             : 刘德华(Andy Lau)
Performer                   : Vampire
Genre                       : 中国大陆
Recorded date               : 2022
Copyright                   : 警告:严禁将任何作品用于商业性质活动,所有制作作品仅限于测试宽带之用,请于下载后24小时内删除。本人不承担任何法律后果!喜欢本作品请购买正版!!!
Comment                     : Vampire制作分享作品

Video
ID                          : 1
Format                      : AVC
Format/Info                 : Advanced Video Codec
Format profile              : [email protected]
Format settings             : CABAC / 4 Ref Frames
Format settings, CABAC      : Yes
Format settings, Reference  : 4 frames
Format settings, GOP        : M=4, N=50
Codec ID                    : avc1
Codec ID/Info               : Advanced Video Coding
Duration                    : 2 h 55 min
Source duration             : 2 h 55 min
Bit rate mode               : Constant
Bit rate                    : 8 003 kb/s
Width                       : 1 920 pixels
Height                      : 1 080 pixels
Display aspect ratio        : 16:9
Frame rate mode             : Constant
Frame rate                  : 25.000 FPS
Color space                 : YUV
Chroma subsampling          : 4:2:0
Bit depth                   : 8 bits
Scan type                   : Progressive
Bits/(Pixel*Frame)          : 0.154
Stream size                 : 9.42 GiB (93%)
Source stream size          : 9.82 GiB (97%)
Codec configuration box     : avcC

Audio
ID                          : 2
Format                      : AAC LC
Format/Info                 : Advanced Audio Codec Low Complexity
Codec ID                    : mp4a-40-2
Duration                    : 2 h 55 min
Bit rate mode               : Constant
Bit rate                    : 253 kb/s
Channel(s)                  : 2 channels
Channel layout              : L R
Sampling rate               : 48.0 kHz
Frame rate                  : 46.875 FPS (1024 SPF)
Compression mode            : Lossy
Stream size                 : 318 MiB (3%)
Language                    : Chinese
Default                     : Yes

c5f0b454423b7e2b0c34ec6b96930e67.jpg

种子请使用专业BT下载工具:
UT,Bitcomet,qBittorrent,Xdown开启上传后再下载!!!
使用迅雷或网盘离线可能会没速度!


提取密码:gxfc

备用百度下载地址.txt

147 Bytes, 下载次数: 0, 下载积分: 金币 -1

售价: 20 金币  [记录]  [购买]

温馨提示

记得善用社区搜索功能,那里可能会有你想要的资源;论坛站内搜索

如果你有什么需要的资源可以去悬赏问答发帖,求助社区的网友,我们会在第一时间给你回复哦;资源求档

对于本社区如果你有任何好建议或者相关合作可以随时与我们联系,或者在反馈建议发帖,您的支持,是我们发展的最大动力;投诉建议

精彩评论28

hdchy 发表于 2022-9-8 02:32 | 显示全部楼层
不错,支持一下!
每天一签到,证明我来过8资源分享论坛...
manbo 发表于 2022-9-8 08:46 | 显示全部楼层
谢谢,支持一下

温馨提示

记得善用社区搜索功能,那里可能会有你想要的资源;论坛站内搜索

如果你有什么需要的资源可以去悬赏问答发帖,求助社区的网友,我们会在第一时间给你回复哦;资源求档

对于本社区如果你有任何好建议或者相关合作可以随时与我们联系,或者在反馈建议发帖,您的支持,是我们发展的最大动力;投诉建议

腥气 发表于 2022-9-9 07:43 来自手机 | 显示全部楼层
好电影所以前来围观

温馨提示

记得善用社区搜索功能,那里可能会有你想要的资源;论坛站内搜索

如果你有什么需要的资源可以去悬赏问答发帖,求助社区的网友,我们会在第一时间给你回复哦;资源求档

对于本社区如果你有任何好建议或者相关合作可以随时与我们联系,或者在反馈建议发帖,您的支持,是我们发展的最大动力;投诉建议

zhoufang090203p 发表于 2022-9-9 18:56 | 显示全部楼层
多谢分享前来收藏

温馨提示

记得善用社区搜索功能,那里可能会有你想要的资源;论坛站内搜索

如果你有什么需要的资源可以去悬赏问答发帖,求助社区的网友,我们会在第一时间给你回复哦;资源求档

对于本社区如果你有任何好建议或者相关合作可以随时与我们联系,或者在反馈建议发帖,您的支持,是我们发展的最大动力;投诉建议

axcao2 发表于 2022-9-10 11:29 | 显示全部楼层
支持华仔

温馨提示

记得善用社区搜索功能,那里可能会有你想要的资源;论坛站内搜索

如果你有什么需要的资源可以去悬赏问答发帖,求助社区的网友,我们会在第一时间给你回复哦;资源求档

对于本社区如果你有任何好建议或者相关合作可以随时与我们联系,或者在反馈建议发帖,您的支持,是我们发展的最大动力;投诉建议

xhao4yu 发表于 2022-9-10 19:32 | 显示全部楼层
感谢分享已收藏

温馨提示

记得善用社区搜索功能,那里可能会有你想要的资源;论坛站内搜索

如果你有什么需要的资源可以去悬赏问答发帖,求助社区的网友,我们会在第一时间给你回复哦;资源求档

对于本社区如果你有任何好建议或者相关合作可以随时与我们联系,或者在反馈建议发帖,您的支持,是我们发展的最大动力;投诉建议

二次元的妹子 发表于 2022-9-11 07:02 | 显示全部楼层
感谢分享已经收藏

温馨提示

记得善用社区搜索功能,那里可能会有你想要的资源;论坛站内搜索

如果你有什么需要的资源可以去悬赏问答发帖,求助社区的网友,我们会在第一时间给你回复哦;资源求档

对于本社区如果你有任何好建议或者相关合作可以随时与我们联系,或者在反馈建议发帖,您的支持,是我们发展的最大动力;投诉建议

脆弱让人放纵 发表于 2022-9-11 17:39 来自手机 | 显示全部楼层
多谢,楼主终于找到了

温馨提示

记得善用社区搜索功能,那里可能会有你想要的资源;论坛站内搜索

如果你有什么需要的资源可以去悬赏问答发帖,求助社区的网友,我们会在第一时间给你回复哦;资源求档

对于本社区如果你有任何好建议或者相关合作可以随时与我们联系,或者在反馈建议发帖,您的支持,是我们发展的最大动力;投诉建议

巷弄 发表于 2022-9-12 13:32 | 显示全部楼层
多谢分享前来收藏

温馨提示

记得善用社区搜索功能,那里可能会有你想要的资源;论坛站内搜索

如果你有什么需要的资源可以去悬赏问答发帖,求助社区的网友,我们会在第一时间给你回复哦;资源求档

对于本社区如果你有任何好建议或者相关合作可以随时与我们联系,或者在反馈建议发帖,您的支持,是我们发展的最大动力;投诉建议

young270c 发表于 2022-9-12 18:25 | 显示全部楼层
谢谢楼主大人分享

温馨提示

记得善用社区搜索功能,那里可能会有你想要的资源;论坛站内搜索

如果你有什么需要的资源可以去悬赏问答发帖,求助社区的网友,我们会在第一时间给你回复哦;资源求档

对于本社区如果你有任何好建议或者相关合作可以随时与我们联系,或者在反馈建议发帖,您的支持,是我们发展的最大动力;投诉建议

本版积分规则
提醒:禁止复制他人回复等『恶意灌水』行为,违者重罚!

发表新帖
阅读排行更多+
快速回复 收藏帖子 返回列表 搜索
即刻加入,享受更多精彩。 会员登录[Login] 注册[Register]
资源分享,资源共享。
官方Facebok
Facebook.com/8ziyuan
意见反馈:[email protected]

关注我们的官方Twitter

Powered by Discuz! © 2016-2022 8ziyuan.com Inc. Protected by CloudFlare | 小黑屋 | 8资源分享论坛 | RSS订阅 | 手机版 | 联系我们