请选择 进入手机版 | 继续访问电脑版

[喜剧片] 失意旅行[中文字幕].Tolo.Tolo.2020.BluRay.1080p.DTS-HD.MA.5.1.x265.10b...

  [复制链接]
唐章小小社区官方认证 发表于 2022-11-22 01:00 | 显示全部楼层 |阅读模式 打印 上一主题 下一主题
6350a41a5c374.jpg

◎标  题 失意旅行
◎译  名 L'amico di scorta
◎片  名 Tolo Tolo
◎年  代 2020
◎产  地 意大利
◎类  别 喜剧 / 家庭
◎语  言 意大利语
◎上映日期 2020-01-01(意大利)
◎IMDb评分 5.8/10 (3149人评价)
◎IMDb链接 https://www.imdb.com/title/tt10413566/
◎豆瓣评分 6.2/10 (81人评价)
◎豆瓣链接 https://movie.douban.com/subject/34940598/
◎片  长 90分钟
◎编  剧 切柯·扎罗内 Checco Zalone
       保罗·维尔齐 Paolo Virzì
◎演  员 切柯·扎罗内 Checco Zalone
       安东内拉·阿蒂利 Antonella Attili
       尼科拉·诺塞拉 Nicola Nocella
       芭芭拉·布薛特 Barbara Bouchet
       Nicola Di Bari Nicola Di Bari

◎标  签 意大利 / 喜剧 / 讽刺 / 搞笑 / 意大利风格 / 2020 / 移民 / 冒险

◎简  介
  破产后,阿普利亚企业家切柯(切柯·扎罗内 饰)为了逃避追债而离开非洲,他在一家旅游胜地找到了一份工作,在那里他遇到了爱贾巴(曼达·图雷 饰)和乌马尔(苏莱曼·西拉 饰),后者是一个热爱意大利现实主义电影的服务生。当ISIS恐怖分子袭击该地区时,切柯别无选择,只能和他的朋友再次迁徙...
  • ##### MediaInfo ######
  • General
  • Unique ID                                : 205869781272554242968683614659915405279 (0x9AE113E032753E748587C3A2D6E1D7DF)
  • Complete name                            : Tolo.Tolo.2020.BluRay.1080p.DTS-HD.MA.5.1.x265.10bit-Xiaomi.mkv
  • Format                                   : Matroska
  • Format version                           : Version 4
  • File size                                : 6.13 GiB
  • Duration                                 : 1 h 34 min
  • Overall bit rate mode                    : Variable
  • Overall bit rate                         : 9 274 kb/s
  • Encoded date                             : UTC 2020-09-08 13:56:04
  • Writing application                      : mkvmerge v49.0.0 ('Sick Of Losing Soulmates') 64-bit
  • Writing library                          : libebml v1.4.0 + libmatroska v1.6.1
  • Video
  • ID                                       : 1
  • Format                                   : HEVC
  • Format/Info                              : High Efficiency Video Coding
  • Format profile                           : Main [email protected]@High
  • Codec ID                                 : V_MPEGH/ISO/HEVC
  • Duration                                 : 1 h 34 min
  • Bit rate                                 : 6 577 kb/s
  • Width                                    : 1 920 pixels
  • Height                                   : 804 pixels
  • Display aspect ratio                     : 2.40:1
  • Frame rate mode                          : Constant
  • Frame rate                               : 24.000 FPS
  • Color space                              : YUV
  • Chroma subsampling                       : 4:2:0
  • Bit depth                                : 10 bits
  • Bits/(Pixel*Frame)                       : 0.178
  • Stream size                              : 4.35 GiB (71%)
  • Writing library                          : x265 3.4+15-g45f1d01f8:[Windows][GCC 10.2.0][64 bit] 10bit
  • Encoding settings                        : cpuid=533541111039 / frame-threads=5 / numa-pools=32 / wpp / pmode / pme / no-psnr / no-ssim / log-level=2 / input-csp=1 / input-res=1920x804 / interlace=0 / total-frames=136359 / level-idc=41 / high-tier=1 / uhd-bd=0 / ref=6 / no-allow-non-conformance / repeat-headers / annexb / no-aud / no-hrd / info / hash=0 / no-temporal-layers / no-open-gop / min-keyint=24 / keyint=250 / gop-lookahead=0 / bframes=8 / b-adapt=2 / b-pyramid / bframe-bias=0 / rc-lookahead=60 / lookahead-slices=5 / NTMzNTQ=uuDQuD2mJt9fsCf / scenecut=40 / hist-scenecut=0 / radl=0 / no-splice / no-intra-refresh / ctu=32 / min-cu-size=8 / no-rect / no-amp / max-tu-size=32 / tu-inter-depth=1 / tu-intra-depth=1 / limit-tu=0 / rdoq-level=0 / dynamic-rd=0.00 / no-ssim-rd / signhide / no-tskip / nr-intra=0 / nr-inter=0 / no-constrained-intra / no-strong-intra-smoothing / max-merge=3 / limit-refs=1 / no-limit-modes / me=2 / subme=7 / merange=48 / temporal-mvp / no-frame-dup / no-hme / weightp / weightb / no-analyze-src-pics / deblock=0:0 / no-sao / no-sao-non-deblock / rd=4 / selective-sao=0 / early-skip / rskip / no-fast-intra / no-tskip-fast / no-cu-lossless / b-intra / no-splitrd-skip / rdpenalty=0 / psy-rd=2.00 / psy-rdoq=0.00 / no-rd-refine / no-lossless / cbqpoffs=0 / crqpoffs=0 / rc=crf / crf=14.0 / qcomp=0.60 / qpstep=4 / stats-write=0 / stats-read=0 / vbv-maxrate=50000 / vbv-bufsize=50000 / vbv-init=0.9 / crf-max=0.0 / crf-min=0.0 / ipratio=1.40 / pbratio=1.30 / aq-mode=1 / aq-strength=1.00 / cutree / zone-count=0 / no-strict-cbr / qg-size=32 / no-rc-grain / qpmax=69 / qpmin=0 / no-const-vbv / sar=0 / overscan=0 / videoformat=5 / range=0 / colorprim=2 / transfer=2 / colormatrix=2 / chromaloc=0 / display-window=0 / cll=0,0 / min-luma=0 / max-luma=1023 / log2-max-poc-lsb=8 / vui-timing-info / vui-hrd-info / slices=1 / no-opt-qp-pps / no-opt-ref-list-length-pps / no-multi-pass-opt-rps / scenecut-bias=0.05 / hist-threshold=0.03 / no-opt-cu-delta-qp / aq-motion / no-hdr10 / no-hdr10-opt / no-dhdr10-opt / no-idr-recovery-sei / analysis-reuse-level=0 / analysis-save-reuse-level=0 / analysis-load-reuse-level=0 / scale-factor=0 / refine-intra=0 / refine-inter=0 / refine-mv=1 / refine-ctu-distortion=0 / no-limit-sao / ctu-info=0 / no-lowpass-dct / refine-analysis-type=0 / copy-pic=1 / max-ausize-factor=1.0 / no-dynamic-refine / no-single-sei / no-hevc-aq / no-svt / no-field / qp-adaptation-range=1.00 / no-scenecut-aware-qpconformance-window-offsets / right=0 / bottom=0 / NTMzNTQ= / decoder-max-rate=0
  • Default                                  : Yes
  • Forced                                   : No
  • Audio
  • ID                                       : 2
  • ID in the original source medium         : 4352 (0x1100)
  • Format                                   : DTS XLL
  • Format/Info                              : Digital Theater Systems
  • Commercial name                          : DTS-HD Master Audio
  • Codec ID                                 : A_DTS
  • Duration                                 : 1 h 34 min
  • Bit rate mode                            : Variable
  • Bit rate                                 : 2 646 kb/s
  • Channel(s)                               : 6 channels
  • Channel layout                           : C L R Ls Rs LFE
  • Sampling rate                            : 48.0 kHz
  • Frame rate                               : 93.750 FPS (512 SPF)
  • Bit depth                                : 16 bits
  • Compression mode                         : Lossless
  • Stream size                              : 1.75 GiB (29%)
  • Language                                 : Italian
  • Default                                  : Yes
  • Forced                                   : No
  • Original source medium                   : Blu-ray
  • Text #1
  • ID                                       : 3
  • ID in the original source medium         : 4608 (0x1200)
  • Format                                   : PGS
  • Muxing mode                              : zlib
  • Codec ID                                 : S_HDMV/PGS
  • Codec ID/Info                            : Picture based subtitle format used on BDs/HD-DVDs
  • Duration                                 : 1 h 27 min
  • Bit rate                                 : 40.1 kb/s
  • Count of elements                        : 2568
  • Stream size                              : 25.2 MiB (0%)
  • Language                                 : Italian
  • Default                                  : Yes
  • Forced                                   : No
  • Original source medium                   : Blu-ray
  • Text #2
  • ID                                       : 4
  • ID in the original source medium         : 4609 (0x1201)
  • Format                                   : PGS
  • Muxing mode                              : zlib
  • Codec ID                                 : S_HDMV/PGS
  • Codec ID/Info                            : Picture based subtitle format used on BDs/HD-DVDs
  • Duration                                 : 1 h 27 min
  • Bit rate                                 : 30.3 kb/s
  • Count of elements                        : 2184
  • Stream size                              : 19.0 MiB (0%)
  • Language                                 : English
  • Default                                  : No
  • Forced                                   : No
  • Original source medium                   : Blu-ray
  • Text #3
  • ID                                       : 5
  • ID in the original source medium         : 4610 (0x1202)
  • Format                                   : PGS
  • Muxing mode                              : zlib
  • Codec ID                                 : S_HDMV/PGS
  • Codec ID/Info                            : Picture based subtitle format used on BDs/HD-DVDs
  • Duration                                 : 1 h 28 min
  • Bit rate                                 : 26.5 kb/s
  • Count of elements                        : 2338
  • Stream size                              : 16.7 MiB (0%)
  • Language                                 : Chinese
  • Default                                  : No
  • Forced                                   : No
  • Original source medium                   : Blu-ray
  • Text #4
  • ID                                       : 6
  • ID in the original source medium         : 4611 (0x1203)
  • Format                                   : PGS
  • Muxing mode                              : zlib
  • Codec ID                                 : S_HDMV/PGS
  • Codec ID/Info                            : Picture based subtitle format used on BDs/HD-DVDs
  • Duration                                 : 1 h 28 min
  • Bit rate                                 : 26.8 kb/s
  • Count of elements                        : 2338
  • Stream size                              : 16.9 MiB (0%)
  • Language                                 : Chinese
  • Default                                  : No
  • Forced                                   : No
  • Original source medium                   : Blu-ray
  • Menu
  • 00:00:00.000                             : en:Chapter 01
  • 00:05:16.166                             : en:Chapter 02
  • 00:14:45.583                             : en:Chapter 03
  • 00:23:34.666                             : en:Chapter 04
  • 00:31:05.166                             : en:Chapter 05
  • 00:38:45.541                             : en:Chapter 06
  • 00:46:50.083                             : en:Chapter 07
  • 00:54:32.750                             : en:Chapter 08
  • 01:02:02.916                             : en:Chapter 09
  • 01:09:51.625                             : en:Chapter 10
  • 01:18:05.583                             : en:Chapter 11
  • 01:25:40.250                             : en:Chapter 12


Tolo.Tolo.2020.BluRay.1080p.DTS-HD.MA.5.1.x265.10bit-Xiaomi.torrent

22.21 KB, 下载次数: 1, 下载积分: 金币 -1

温馨提示

记得善用社区搜索功能,那里可能会有你想要的资源;论坛站内搜索

如果你有什么需要的资源可以去悬赏问答发帖,求助社区的网友,我们会在第一时间给你回复哦;资源求档

对于本社区如果你有任何好建议或者相关合作可以随时与我们联系,或者在反馈建议发帖,您的支持,是我们发展的最大动力;投诉建议

精彩评论34

吃醋心疼i 发表于 2022-11-22 06:01 | 显示全部楼层
多谢,楼主终于找到了

温馨提示

记得善用社区搜索功能,那里可能会有你想要的资源;论坛站内搜索

如果你有什么需要的资源可以去悬赏问答发帖,求助社区的网友,我们会在第一时间给你回复哦;资源求档

对于本社区如果你有任何好建议或者相关合作可以随时与我们联系,或者在反馈建议发帖,您的支持,是我们发展的最大动力;投诉建议

peifei_pfs 发表于 2022-11-28 04:48 来自手机 | 显示全部楼层
谢谢楼主大人分享

温馨提示

记得善用社区搜索功能,那里可能会有你想要的资源;论坛站内搜索

如果你有什么需要的资源可以去悬赏问答发帖,求助社区的网友,我们会在第一时间给你回复哦;资源求档

对于本社区如果你有任何好建议或者相关合作可以随时与我们联系,或者在反馈建议发帖,您的支持,是我们发展的最大动力;投诉建议

yagshuag 发表于 2022-12-7 15:43 来自手机 | 显示全部楼层
感谢分享已收藏

温馨提示

记得善用社区搜索功能,那里可能会有你想要的资源;论坛站内搜索

如果你有什么需要的资源可以去悬赏问答发帖,求助社区的网友,我们会在第一时间给你回复哦;资源求档

对于本社区如果你有任何好建议或者相关合作可以随时与我们联系,或者在反馈建议发帖,您的支持,是我们发展的最大动力;投诉建议

shijian0316 发表于 2022-12-13 20:11 来自手机 | 显示全部楼层
感谢分享已收藏

温馨提示

记得善用社区搜索功能,那里可能会有你想要的资源;论坛站内搜索

如果你有什么需要的资源可以去悬赏问答发帖,求助社区的网友,我们会在第一时间给你回复哦;资源求档

对于本社区如果你有任何好建议或者相关合作可以随时与我们联系,或者在反馈建议发帖,您的支持,是我们发展的最大动力;投诉建议

泪不肯走 发表于 2022-12-17 18:36 来自手机 | 显示全部楼层
多谢,楼主终于找到了

温馨提示

记得善用社区搜索功能,那里可能会有你想要的资源;论坛站内搜索

如果你有什么需要的资源可以去悬赏问答发帖,求助社区的网友,我们会在第一时间给你回复哦;资源求档

对于本社区如果你有任何好建议或者相关合作可以随时与我们联系,或者在反馈建议发帖,您的支持,是我们发展的最大动力;投诉建议

梦想永遠在騷動 发表于 2022-12-21 07:13 来自手机 | 显示全部楼层
很好看所以收藏起来了

温馨提示

记得善用社区搜索功能,那里可能会有你想要的资源;论坛站内搜索

如果你有什么需要的资源可以去悬赏问答发帖,求助社区的网友,我们会在第一时间给你回复哦;资源求档

对于本社区如果你有任何好建议或者相关合作可以随时与我们联系,或者在反馈建议发帖,您的支持,是我们发展的最大动力;投诉建议

nn007 发表于 2022-12-21 08:35 | 显示全部楼层
谢谢分享好电影!!!!!!!

温馨提示

记得善用社区搜索功能,那里可能会有你想要的资源;论坛站内搜索

如果你有什么需要的资源可以去悬赏问答发帖,求助社区的网友,我们会在第一时间给你回复哦;资源求档

对于本社区如果你有任何好建议或者相关合作可以随时与我们联系,或者在反馈建议发帖,您的支持,是我们发展的最大动力;投诉建议

wxycy16 发表于 2022-12-21 09:15 | 显示全部楼层
看评分还不错,下载试试

温馨提示

记得善用社区搜索功能,那里可能会有你想要的资源;论坛站内搜索

如果你有什么需要的资源可以去悬赏问答发帖,求助社区的网友,我们会在第一时间给你回复哦;资源求档

对于本社区如果你有任何好建议或者相关合作可以随时与我们联系,或者在反馈建议发帖,您的支持,是我们发展的最大动力;投诉建议

phm33500876 发表于 2022-12-23 14:55 来自手机 | 显示全部楼层
感恩分享多谢

温馨提示

记得善用社区搜索功能,那里可能会有你想要的资源;论坛站内搜索

如果你有什么需要的资源可以去悬赏问答发帖,求助社区的网友,我们会在第一时间给你回复哦;资源求档

对于本社区如果你有任何好建议或者相关合作可以随时与我们联系,或者在反馈建议发帖,您的支持,是我们发展的最大动力;投诉建议

LongGangqun 发表于 2023-1-2 16:22 | 显示全部楼层
感谢分享已经收藏

温馨提示

记得善用社区搜索功能,那里可能会有你想要的资源;论坛站内搜索

如果你有什么需要的资源可以去悬赏问答发帖,求助社区的网友,我们会在第一时间给你回复哦;资源求档

对于本社区如果你有任何好建议或者相关合作可以随时与我们联系,或者在反馈建议发帖,您的支持,是我们发展的最大动力;投诉建议

本版积分规则
提醒:禁止复制他人回复等『恶意灌水』行为,违者重罚!

发表新帖
阅读排行更多+
快速回复 收藏帖子 返回列表
即刻加入,享受更多精彩。 会员登录[Login] 注册[Register]
资源分享,资源共享。
官方Facebok
Facebook.com/8ziyuan
意见反馈:[email protected]

关注我们的官方Twitter

Powered by Discuz! © 2016-2023 8ziyuan.com Inc. Protected by CloudFlare | 小黑屋 | 8资源分享论坛 | RSS订阅 | 手机版 | 联系我们