请选择 进入手机版 | 继续访问电脑版

[动画片] [画江湖之不良人(动漫).第六季][全12集][国语中字][WEB/MKV...

  [复制链接]
新泽西社区官方认证 发表于 2023-5-29 23:31 | 显示全部楼层 |阅读模式 打印 上一主题 下一主题
6c834677ed06b4dfa7b116f554796f2b.jpg

◎片  名 画江湖之不良人6 / 画江湖之不良人VI / 画江湖之不良人 第六季
◎译  名   Bu Liang Ren S06
◎年  代 2023
◎产  地 中国大陆
◎类  别 动作 / 动画 / 武侠
◎语  言 汉语普通话
◎上映日期 2023-03-02(中国大陆)
◎豆瓣评分 9.6/10 (30418人评价)
◎集  数 12
◎片  长 28分钟
◎导  演 李帅帅 DaoYu Qiu (id:1465466)
◎编  剧 李皖青 Wanqing Li (id:1468520)
       李佳炫 Jiaxuan Li (id:1468521)
       李帅帅 DaoYu Qiu (id:1465466)
◎演  员 边江 Jiang Bian (id:1339972)
       申秋香 Qiuxiang Shen (id:1345415)
       赵毅 Yi Zhao (id:1342836)
       阎萌萌 Mengmeng Yan (id:1340811)
       赵述仁 Shuren Zhao (id:1385397)
       刘思岑 Sicen Liu (id:1332875)
       张惠霖 Huilin Zhang (id:1485502)
       杨默 Mo Yang (id:1439713)

◎简  介

  监国独揽朝政,漠北大军来势汹汹,岐国独木难支,且看李星云如何带领不良人绝地反击!

General

Complete name               : 画江湖之不良人.第六季(动漫).Bu.Liang.Ren.S06.2023.EP01.4K.WEB-DL.H265.SDR.AAC-Vampire.mkv
Format                      : Matroska
Format version              : Version 4
File size                   : 360 MiB
Duration                    : 28 min 46 s
Overall bit rate            : 1 749 kb/s
Movie name                  : 画江湖之不良人(动漫).第六季
Comment                     : 警告:严禁将任何作品用于商业性质活动,所有制作作品仅限于测试宽带之用,请于下载后24小时内删除。本人不承担任何法律后果!喜欢本作品请购买正版!!!
ARTIST                      : Vampire制作分享作品
DATE_RECORDED               : 2023
GENRE                       : 中国大陆

Video
ID                          : 1
Format                      : HEVC
Format/Info                 : High Efficiency Video Coding
Format profile              : Main@L5@Main
Codec ID                    : V_MPEGH/ISO/HEVC
Duration                    : 28 min 45 s
Bit rate                    : 1 620 kb/s
Width                       : 3 840 pixels
Height                      : 1 598 pixels
Display aspect ratio        : 2.40:1
Frame rate mode             : Constant
Frame rate                  : 25.000 FPS
Color space                 : YUV
Chroma subsampling          : 4:2:0
Bit depth                   : 8 bits
Bits/(Pixel*Frame)          : 0.011
Stream size                 : 333 MiB (93%)
Title                       : Vampire制作分享作品
Language                    : Chinese
Default                     : No
Forced                      : No
Color range                 : Limited
Color primaries             : BT.709
Transfer characteristics    : BT.709
Matrix coefficients         : BT.709

Audio
ID                          : 2
Format                      : AAC LC
Format/Info                 : Advanced Audio Codec Low Complexity
Codec ID                    : A_AAC-2
Duration                    : 28 min 45 s
Bit rate                    : 125 kb/s
Channel(s)                  : 2 channels
Channel layout              : L R
Sampling rate               : 48.0 kHz
Frame rate                  : 46.875 FPS (1024 SPF)
Compression mode            : Lossy
Delay relative to video     : -160 ms
Stream size                 : 25.8 MiB (7%)
Title                       : 汉语普通话
Language                    : Chinese
Default                     : No
Forced                      : No
4c5e889b49da7492c979e8fa7c31088b.jpg 5fe17fea684c03fba308e91e90134acc.jpg

种子请使用专业BT下载工具:
UT,Bitcomet,qBittorrent,Xdown开启上传后再下载!!!
使用迅雷或网盘离线可能会没速度!!!
视频的网盘资源均修改了视频后缀(如mp4或mkv)修改为.PDF,用以混淆官方视听!
并且加密了文件名,设置了独有的解压密码,请使用WinRAR解压,使用好压或其他可能会出错!!
网盘版所有压缩包下载完毕后解压第一个包即可全部解压(有些可能有解压密码),解压后自行将后缀名“PDF”修改为“mp4或者mkv”后即可正常播放!!!

已完结剧集不再分集打包上传,整体打包后分卷,无法单独下载某一集,需要全部下载后一起解压,敬请知晓!!!
请各位下载的坛友先保存至自己的网盘,然后再进行下载!
不要直接在线观看或者解压,否则会很快被网盘官方发觉并和谐!!
网盘版资源一旦和谐,皆不会免费补档,请谨慎举报资源!!!

请下载完成的朋友自觉做种一段时间,小水管出种不易,且下且珍惜,谢谢!!!

画江湖之不良人.第六季(动漫).Bu.Liang.Ren.S06.2023.Complete.4K.WEB-DL.H265.SDR..torrent

101.88 KB, 下载次数: 12, 下载积分: 金币 -1

随便发点什么 心情不错。晚安

精彩评论30

相许 发表于 2023-5-30 04:31 来自手机 | 显示全部楼层
感恩分享多谢

温馨提示

记得善用社区搜索功能,那里可能会有你想要的资源;论坛站内搜索

如果你有什么需要的资源可以去悬赏问答发帖,求助社区的网友,我们会在第一时间给你回复哦;资源求档

对于本社区如果你有任何好建议或者相关合作可以随时与我们联系,或者在反馈建议发帖,您的支持,是我们发展的最大动力;投诉建议

jian123123i 发表于 2023-5-30 12:00 | 显示全部楼层
多谢楼主分享

温馨提示

记得善用社区搜索功能,那里可能会有你想要的资源;论坛站内搜索

如果你有什么需要的资源可以去悬赏问答发帖,求助社区的网友,我们会在第一时间给你回复哦;资源求档

对于本社区如果你有任何好建议或者相关合作可以随时与我们联系,或者在反馈建议发帖,您的支持,是我们发展的最大动力;投诉建议

hdchy 发表于 2023-5-30 13:13 | 显示全部楼层
不错,支持一下!
每天一签到,证明我来过8资源分享论坛...
請把小熊还给我 发表于 2023-5-31 19:37 | 显示全部楼层
多谢楼主,收藏了

温馨提示

记得善用社区搜索功能,那里可能会有你想要的资源;论坛站内搜索

如果你有什么需要的资源可以去悬赏问答发帖,求助社区的网友,我们会在第一时间给你回复哦;资源求档

对于本社区如果你有任何好建议或者相关合作可以随时与我们联系,或者在反馈建议发帖,您的支持,是我们发展的最大动力;投诉建议

落落清欢 发表于 2023-6-13 14:42 | 显示全部楼层
感谢楼主分享啊

温馨提示

记得善用社区搜索功能,那里可能会有你想要的资源;论坛站内搜索

如果你有什么需要的资源可以去悬赏问答发帖,求助社区的网友,我们会在第一时间给你回复哦;资源求档

对于本社区如果你有任何好建议或者相关合作可以随时与我们联系,或者在反馈建议发帖,您的支持,是我们发展的最大动力;投诉建议

梵以姑娘i 发表于 2023-6-14 14:26 来自手机 | 显示全部楼层
多谢楼主分享

温馨提示

记得善用社区搜索功能,那里可能会有你想要的资源;论坛站内搜索

如果你有什么需要的资源可以去悬赏问答发帖,求助社区的网友,我们会在第一时间给你回复哦;资源求档

对于本社区如果你有任何好建议或者相关合作可以随时与我们联系,或者在反馈建议发帖,您的支持,是我们发展的最大动力;投诉建议

◆沧桑 发表于 2023-6-22 14:51 来自手机 | 显示全部楼层
多谢楼主,收藏了

温馨提示

记得善用社区搜索功能,那里可能会有你想要的资源;论坛站内搜索

如果你有什么需要的资源可以去悬赏问答发帖,求助社区的网友,我们会在第一时间给你回复哦;资源求档

对于本社区如果你有任何好建议或者相关合作可以随时与我们联系,或者在反馈建议发帖,您的支持,是我们发展的最大动力;投诉建议

mypwjcymn 发表于 2023-6-28 10:04 | 显示全部楼层
多谢楼主分享

温馨提示

记得善用社区搜索功能,那里可能会有你想要的资源;论坛站内搜索

如果你有什么需要的资源可以去悬赏问答发帖,求助社区的网友,我们会在第一时间给你回复哦;资源求档

对于本社区如果你有任何好建议或者相关合作可以随时与我们联系,或者在反馈建议发帖,您的支持,是我们发展的最大动力;投诉建议

gongms4 发表于 2023-7-4 07:27 | 显示全部楼层
终于找到了不容易

温馨提示

记得善用社区搜索功能,那里可能会有你想要的资源;论坛站内搜索

如果你有什么需要的资源可以去悬赏问答发帖,求助社区的网友,我们会在第一时间给你回复哦;资源求档

对于本社区如果你有任何好建议或者相关合作可以随时与我们联系,或者在反馈建议发帖,您的支持,是我们发展的最大动力;投诉建议

一切、虚伪 发表于 2023-7-5 06:28 来自手机 | 显示全部楼层
谢谢楼主大人分享

温馨提示

记得善用社区搜索功能,那里可能会有你想要的资源;论坛站内搜索

如果你有什么需要的资源可以去悬赏问答发帖,求助社区的网友,我们会在第一时间给你回复哦;资源求档

对于本社区如果你有任何好建议或者相关合作可以随时与我们联系,或者在反馈建议发帖,您的支持,是我们发展的最大动力;投诉建议

本版积分规则
提醒:禁止复制他人回复等『恶意灌水』行为,违者重罚!

发表新帖
阅读排行更多+
快速回复 收藏帖子 返回列表
即刻加入,享受更多精彩。 会员登录[Login] 注册[Register]
资源分享,资源共享。
官方Facebok
Facebook.com/8ziyuan
意见反馈:[email protected]

关注我们的官方Twitter

Powered by Discuz! © 2016-2024 8ziyuan.com Inc. Protected by CloudFlare | 小黑屋 | 8资源分享论坛 | RSS订阅 | 手机版 | 联系我们