请选择 进入手机版 | 继续访问电脑版

[动作片] 地狱厨房[简繁英字幕].The.Kitchen.2019.BluRay.1080p.DTS-HD.MA5.1.x265...

  [复制链接]
唐章小小社区官方认证 发表于 2022-11-22 01:00 | 显示全部楼层 |阅读模式 打印 上一主题 下一主题
6350110741c0d.jpg

◎标  题 地狱厨房
◎片  名 The Kitchen
◎年  代 2019
◎产  地 美国
◎类  别 剧情 / 动作 / 犯罪
◎语  言 英语
◎上映日期 2019-08-09(美国)
◎IMDb评分 5.5/10 (19356人评价)
◎IMDb链接 https://www.imdb.com/title/tt5822564/
◎豆瓣评分 5.6/10 (2110人评价)
◎豆瓣链接 https://movie.douban.com/subject/26977362/
◎片  长 103分钟
◎导  演 安德丽亚·贝尔洛夫 Andrea Berloff
◎编  剧 奥利·马斯特斯 Ollie Masters
       明·道尔 Ming Doyle
       安德丽亚·贝尔洛夫 Andrea Berloff
◎演  员 梅丽莎·麦卡西 Melissa McCarthy
       蒂凡尼·哈迪斯 Tiffany Haddish
       伊丽莎白·莫斯 Elisabeth Moss
       多姆纳尔·格里森 Domhnall Gleeson
       詹姆斯·戴尔 James Badge Dale
       布莱恩·达西·詹姆斯 Brian d'Arcy James
       杰里米·博布 Jeremy Bobb
       玛格·马丁戴尔 Margo Martindale
       比尔·坎普 Bill Camp
       科曼 Common
       E·J·博尼拉 E.J. Bonilla
       迈克·沃特福德 Myk Watford
       韦恩·杜瓦尔 Wayne Duvall
       约翰·沙拉恩 John Sharian
       布赖恩·塔伦蒂诺 Brian Tarantina
       威尔·斯文森 Will Swenson
       安娜贝拉·莎拉 Annabella Sciorra
       伯尼·麦克伦尼 Bernie McInerney
       莎珑·华盛顿 Sharon Washington
       乔丹·盖尔伯 Jordan Gelber
       布兰登·乌拉诺维兹 Brandon Uranowitz
       蒂娜·本科 Tina Benko
       苏珊·布洛马特 Susan Blommaert
       约瑟夫·罗素 Joseph Russo
       莱尼·维尼托 Lenny Venito
       肖恩·奥哈根 Shaun O'Hagan
       杰米·杰克逊 Jamie Jackson
       琳达·玛丽·拉森 Linda Marie Larson
       加布里埃尔·拉什 Gabriel Rush
       罗伯特·约翰·加拉格尔 Robert John Gallagher
       达里尔·鲁本·霍尔 Darryl Reuben Hall
       桃乐丝·麦卡锡 Doris McCarthy

◎标  签 犯罪 / 女性 / 美国 / 黑帮 / 2019 / 剧情 / 动作 / 漫画改编

◎简  介
    新线公司出品,根据Vertigo漫画改编的影片[地狱厨房]已确定导演人选。凭借[冲出康普顿]获奥斯卡最佳原创剧本提名的安德丽亚·贝尔洛夫将执导本片。此前她已完成影片剧本创作,本片也是她的导演处女作。讲述70年代末纽约帮派大佬们被捕入狱后,他们的妻子如何通过狠辣手段重整山河。
  • ##### MediaInfo ######
  • General
  • Unique ID                                : 330763087109465689332339866755766208520 (0xF8D6A744F95247E88FDC2726BBB8C808)
  • Complete name                            : The.Kitchen.2019.BluRay.1080p.DTS-HD.MA5.1.x265.10bit-Xiaomi.mkv
  • Format                                   : Matroska
  • Format version                           : Version 4
  • File size                                : 10.4 GiB
  • Duration                                 : 1 h 42 min
  • Overall bit rate mode                    : Variable
  • Overall bit rate                         : 14.4 Mb/s
  • Encoded date                             : UTC 2019-10-31 09:29:39
  • Writing application                      : mkvmerge v27.0.0 ('Metropolis') 64-bit
  • Writing library                          : libebml v1.3.6 + libmatroska v1.4.9
  • Video
  • ID                                       : 5
  • Format                                   : HEVC
  • Format/Info                              : High Efficiency Video Coding
  • Format profile                           : Main 10@L4@Main
  • Codec ID                                 : V_MPEGH/ISO/HEVC
  • Duration                                 : 1 h 42 min
  • Bit rate                                 : 12.2 Mb/s
  • Width                                    : 1 920 pixels
  • Height                                   : 800 pixels
  • Display aspect ratio                     : 2.40:1
  • Frame rate mode                          : Constant
  • Frame rate                               : 23.976 (23976/1000/53354) FPS
  • Color space                              : YUV
  • Chroma subsampling                       : 4:2:0
  • Bit depth                                : 10 bits
  • Bits/(Pixel*Frame)                       : 0.331
  • Stream size                              : 8.74 GiB (84%)
  • Writing library                          : x265 3.1.2+1-76650bab70f9:[Windows][MSVC 1922][64 bit] 10bit
  • Encoding settings                        : cpuid=533541111039 / frame-threads=5 / numa-pools=48,48 / wpp / no-pmode / no-pme / no-psnr / no-ssim / log-level=2 / input-csp=1 / input-res=1920x800 / interlace=0 / total-frames=0 / level-idc=0 / high-tier=1 / uhd-bd=0 / ref=4 / no-allow-non-conformance / no-repeat-headers / annexb / no-aud / no-hrd / info / hash=0 / no-temporal-layers / no-open-gop / min-keyint=23 / keyint=250 / gop-lookahead=0 / bframes=12 / b-adapt=1 / b-pyramid / bframe-bias=0 / rc-lookahead=24 / lookahead-slices=5 / NTMzNTQ=uuDQuD2mJt9fsCf / scenecut=40 / radl=0 / no-splice / no-intra-refresh / ctu=16 / min-cu-size=8 / rect / amp / max-tu-size=16 / tu-inter-depth=1 / tu-intra-depth=1 / limit-tu=0 / rdoq-level=1 / dynamic-rd=0.00 / no-ssim-rd / signhide / no-tskip / nr-intra=0 / nr-inter=0 / no-constrained-intra / no-strong-intra-smoothing / max-merge=3 / limit-refs=1 / limit-modes / me=2 / subme=7 / merange=45 / no-temporal-mvp / weightp / weightb / no-analyze-src-pics / deblock=-1:-1 / no-sao / no-sao-non-deblock / rd=5 / early-skip / rskip / fast-intra / no-tskip-fast / no-cu-lossless / b-intra / no-splitrd-skip / rdpenalty=0 / psy-rd=2.10 / psy-rdoq=3.30 / no-rd-refine / no-lossless / cbqpoffs=-2 / crqpoffs=-2 / rc=crf / crf=18.0 / qcomp=0.75 / qpstep=4 / stats-write=0 / stats-read=0 / ipratio=1.40 / pbratio=1.30 / aq-mode=1 / aq-strength=1.00 / cutree / zone-count=0 / no-strict-cbr / qg-size=16 / no-rc-grain / qpmax=69 / qpmin=0 / no-const-vbv / sar=0 / overscan=0 / videoformat=5 / range=0 / colorprim=2 / transfer=2 / colormatrix=2 / chromaloc=0 / display-window=0cll=0,0 / min-luma=0 / max-luma=1023 / log2-max-poc-lsb=8 / vui-timing-info / vui-hrd-info / slices=1 / no-opt-qp-pps / no-opt-ref-list-length-pps / no-multi-pass-opt-rps / scenecut-bias=0.05 / no-opt-cu-delta-qp / aq-motion / no-hdr / no-hdr-opt / no-dhdr10-opt / no-idr-recovery-sei / analysis-reuse-level=5 / scale-factor=0 / refine-intra=0 / refine-inter=0 / refine-mv=0 / refine-ctu-distortion=0 / no-limit-sao / ctu-info=0 / no-lowpass-dct / refine-analysis-type=0 / copy-pic=1 / max-ausize-factor=1.0 / no-dynamic-refine / no-single-sei / no-hevc-aq / no-svt / no-field / qp-adaptation-range=1.00
  • Default                                  : Yes
  • Forced                                   : No
  • Audio
  • ID                                       : 1
  • Format                                   : DTS XLL
  • Format/Info                              : Digital Theater Systems
  • Commercial name                          : DTS-HD Master Audio
  • Codec ID                                 : A_DTS
  • Duration                                 : 1 h 42 min
  • Bit rate mode                            : Variable
  • Bit rate                                 : 2 173 kb/s
  • Channel(s)                               : 6 channels
  • Channel layout                           : C L R Ls Rs LFE
  • Sampling rate                            : 48.0 kHz
  • Frame rate                               : 93.750 FPS (512 SPF)
  • Bit depth                                : 16 bits
  • Compression mode                         : Lossless
  • Stream size                              : 1.56 GiB (15%)
  • Language                                 : English
  • Default                                  : Yes
  • Forced                                   : No
  • Text #1
  • ID                                       : 2
  • Format                                   : PGS
  • Muxing mode                              : zlib
  • Codec ID                                 : S_HDMV/PGS
  • Codec ID/Info                            : Picture based subtitle format used on BDs/HD-DVDs
  • Duration                                 : 1 h 37 min
  • Bit rate                                 : 38.2 kb/s
  • Count of elements                        : 3280
  • Stream size                              : 26.5 MiB (0%)
  • Language                                 : English
  • Default                                  : Yes
  • Forced                                   : No
  • Text #2
  • ID                                       : 3
  • Format                                   : PGS
  • Muxing mode                              : zlib
  • Codec ID                                 : S_HDMV/PGS
  • Codec ID/Info                            : Picture based subtitle format used on BDs/HD-DVDs
  • Duration                                 : 1 h 36 min
  • Bit rate                                 : 47.9 kb/s
  • Count of elements                        : 2726
  • Stream size                              : 33.1 MiB (0%)
  • Title                                    : CHS
  • Language                                 : Chinese
  • Default                                  : No
  • Forced                                   : No
  • Text #3
  • ID                                       : 4
  • Format                                   : PGS
  • Muxing mode                              : zlib
  • Codec ID                                 : S_HDMV/PGS
  • Codec ID/Info                            : Picture based subtitle format used on BDs/HD-DVDs
  • Duration                                 : 1 h 36 min
  • Bit rate                                 : 50.1 kb/s
  • Count of elements                        : 2726
  • Stream size                              : 34.6 MiB (0%)
  • Title                                    : CHT
  • Language                                 : Chinese
  • Default                                  : No
  • Forced                                   : No
  • Menu
  • 00:00:00.000                             : :00:00:00.000
  • 00:09:26.274                             : :00:09:26.274
  • 00:17:09.987                             : :00:17:09.987
  • 00:27:10.838                             : :00:27:10.838
  • 00:37:37.755                             : :00:37:37.755
  • 00:44:59.280                             : :00:44:59.280
  • 00:54:26.847                             : :00:54:26.847
  • 01:03:54.706                             : :01:03:54.706
  • 01:12:23.130                             : :01:12:23.130
  • 01:22:20.936                             : :01:22:20.936
  • 01:30:38.558                             : :01:30:38.558
  • 01:37:28.384                             : :01:37:28.384


The.Kitchen.2019.BluRay.1080p.DTS-HD.MA5.1.x265.10bit-Xiaomi.torrent

32.87 KB, 下载次数: 5, 下载积分: 金币 -1

温馨提示

记得善用社区搜索功能,那里可能会有你想要的资源;论坛站内搜索

如果你有什么需要的资源可以去悬赏问答发帖,求助社区的网友,我们会在第一时间给你回复哦;资源求档

对于本社区如果你有任何好建议或者相关合作可以随时与我们联系,或者在反馈建议发帖,您的支持,是我们发展的最大动力;投诉建议

精彩评论38

恐惧散播器┾♂ 发表于 2022-11-22 06:00 | 显示全部楼层
多谢楼主分享

温馨提示

记得善用社区搜索功能,那里可能会有你想要的资源;论坛站内搜索

如果你有什么需要的资源可以去悬赏问答发帖,求助社区的网友,我们会在第一时间给你回复哦;资源求档

对于本社区如果你有任何好建议或者相关合作可以随时与我们联系,或者在反馈建议发帖,您的支持,是我们发展的最大动力;投诉建议

丢失的心 发表于 2022-11-26 08:35 | 显示全部楼层
多谢楼主,收藏了

温馨提示

记得善用社区搜索功能,那里可能会有你想要的资源;论坛站内搜索

如果你有什么需要的资源可以去悬赏问答发帖,求助社区的网友,我们会在第一时间给你回复哦;资源求档

对于本社区如果你有任何好建议或者相关合作可以随时与我们联系,或者在反馈建议发帖,您的支持,是我们发展的最大动力;投诉建议

ywmmso 发表于 2022-11-28 08:24 | 显示全部楼层
终于找到了不容易

温馨提示

记得善用社区搜索功能,那里可能会有你想要的资源;论坛站内搜索

如果你有什么需要的资源可以去悬赏问答发帖,求助社区的网友,我们会在第一时间给你回复哦;资源求档

对于本社区如果你有任何好建议或者相关合作可以随时与我们联系,或者在反馈建议发帖,您的支持,是我们发展的最大动力;投诉建议

foxstar 发表于 2022-11-28 11:41 | 显示全部楼层
多谢楼主热心分享!!

温馨提示

记得善用社区搜索功能,那里可能会有你想要的资源;论坛站内搜索

如果你有什么需要的资源可以去悬赏问答发帖,求助社区的网友,我们会在第一时间给你回复哦;资源求档

对于本社区如果你有任何好建议或者相关合作可以随时与我们联系,或者在反馈建议发帖,您的支持,是我们发展的最大动力;投诉建议

右手年华 发表于 2022-11-30 10:45 来自手机 | 显示全部楼层
谢谢楼主分享

温馨提示

记得善用社区搜索功能,那里可能会有你想要的资源;论坛站内搜索

如果你有什么需要的资源可以去悬赏问答发帖,求助社区的网友,我们会在第一时间给你回复哦;资源求档

对于本社区如果你有任何好建议或者相关合作可以随时与我们联系,或者在反馈建议发帖,您的支持,是我们发展的最大动力;投诉建议

nn007 发表于 2022-12-1 08:53 | 显示全部楼层
感谢楼主分享

温馨提示

记得善用社区搜索功能,那里可能会有你想要的资源;论坛站内搜索

如果你有什么需要的资源可以去悬赏问答发帖,求助社区的网友,我们会在第一时间给你回复哦;资源求档

对于本社区如果你有任何好建议或者相关合作可以随时与我们联系,或者在反馈建议发帖,您的支持,是我们发展的最大动力;投诉建议

fuyuyu 发表于 2022-12-1 15:47 来自手机 | 显示全部楼层
谢谢楼主分享

温馨提示

记得善用社区搜索功能,那里可能会有你想要的资源;论坛站内搜索

如果你有什么需要的资源可以去悬赏问答发帖,求助社区的网友,我们会在第一时间给你回复哦;资源求档

对于本社区如果你有任何好建议或者相关合作可以随时与我们联系,或者在反馈建议发帖,您的支持,是我们发展的最大动力;投诉建议

sharokku4869m 发表于 2022-12-1 22:52 | 显示全部楼层
感谢分享已经收藏

温馨提示

记得善用社区搜索功能,那里可能会有你想要的资源;论坛站内搜索

如果你有什么需要的资源可以去悬赏问答发帖,求助社区的网友,我们会在第一时间给你回复哦;资源求档

对于本社区如果你有任何好建议或者相关合作可以随时与我们联系,或者在反馈建议发帖,您的支持,是我们发展的最大动力;投诉建议

hdchy 发表于 2022-12-2 00:24 | 显示全部楼层
谢谢楼主分享!
每天一签到,证明我来过8资源分享论坛...
lxy07153 发表于 2022-12-2 10:10 | 显示全部楼层
谢谢楼主大人分享

温馨提示

记得善用社区搜索功能,那里可能会有你想要的资源;论坛站内搜索

如果你有什么需要的资源可以去悬赏问答发帖,求助社区的网友,我们会在第一时间给你回复哦;资源求档

对于本社区如果你有任何好建议或者相关合作可以随时与我们联系,或者在反馈建议发帖,您的支持,是我们发展的最大动力;投诉建议

本版积分规则
提醒:禁止复制他人回复等『恶意灌水』行为,违者重罚!

发表新帖
阅读排行更多+
快速回复 收藏帖子 返回列表
即刻加入,享受更多精彩。 会员登录[Login] 注册[Register]
资源分享,资源共享。
官方Facebok
Facebook.com/8ziyuan
意见反馈:[email protected]

关注我们的官方Twitter

Powered by Discuz! © 2016-2024 8ziyuan.com Inc. Protected by CloudFlare | 小黑屋 | 8资源分享论坛 | RSS订阅 | 手机版 | 联系我们