请选择 进入手机版 | 继续访问电脑版

[科幻片] 殖民地[简繁英字幕].Tides.2021.BluRay.1080p.DTS.HDMA5.1.x265.10bit-Xia...

  [复制链接]
唐章小小社区官方认证 发表于 2022-11-22 01:00 | 显示全部楼层 |阅读模式 打印 上一主题 下一主题
6270df6f8167a.jpg

◎标  题 殖民地
◎译  名 Haven: Above Sky / Shipbreaker / The Colony
◎片  名 Tides
◎年  代 2021
◎产  地 德国 / 瑞士
◎类  别 科幻 / 惊悚
◎语  言 英语
◎上映日期 2021-03-01(柏林电影节)
◎IMDb评分 5.4/10 (4361人评价)
◎IMDb链接 https://www.imdb.com/title/tt6506264/
◎豆瓣评分 5.4/10 (1557人评价)
◎豆瓣链接 https://movie.douban.com/subject/35184535/
◎片  长 104分钟
◎导  演 蒂姆·菲尔巴姆 Tim Fehlbaum
◎编  剧 蒂姆·菲尔巴姆 Tim Fehlbaum
       玛瑞可·米诺古奇 Mariko Minoguchi
◎演  员 诺拉·阿娜泽德尔 Nora Arnezeder
       莎拉-索菲·波斯妮娜 Sarah-Sofie Boussnina
       伊恩·格雷 Iain Glen
       索佩·迪瑞苏 Sope Dirisu
       乔尔·巴斯曼 Joel Basman
       塞巴斯蒂安·罗奇 Sebastian Roché
       伊登·高夫 Eden Gough

◎标  签 科幻 / 德国 / 2021 / 剧情 / 惊悚 / 瑞士 / 电影 / P-BerlinD特别展映

◎简  介
  Set in the distant future, a female astronaut, shipwrecked on the long-decimated Earth, must decide the fate of the wasteland's remaining populace.
  • ##### MediaInfo ######
  • General
  • Unique ID                                : 284013444862090458477429936161887378383 (0xD5AAFFF3576F893CFFC3519146F85BCF)
  • Complete name                            : Tides.2021.BluRay.1080p.DTS.HDMA5.1.x265.10bit-Xiaomi.mkv
  • Format                                   : Matroska
  • Format version                           : Version 4
  • File size                                : 6.51 GiB
  • Duration                                 : 1 h 44 min
  • Overall bit rate mode                    : Variable
  • Overall bit rate                         : 8 886 kb/s
  • Encoded date                             : UTC 2021-10-14 05:00:05
  • Writing application                      : mkvmerge v62.0.0.2 ('Apollo') 64-bit
  • Writing library                          : libebml v1.4.2 + libmatroska v1.6.4
  • Video
  • ID                                       : 1
  • Format                                   : HEVC
  • Format/Info                              : High Efficiency Video Coding
  • Format profile                           : Main 10@L4@Main
  • Codec ID                                 : V_MPEGH/ISO/HEVC
  • Duration                                 : 1 h 44 min
  • Bit rate                                 : 5 264 kb/s
  • Width                                    : 1 920 pixels
  • Height                                   : 800 pixels
  • Display aspect ratio                     : 2.40:1
  • Frame rate mode                          : Constant
  • Frame rate                               : 23.976 (23976/1000/53354) FPS
  • Color space                              : YUV
  • Chroma subsampling                       : 4:2:0
  • Bit depth                                : 10 bits
  • Bits/(Pixel*Frame)                       : 0.143
  • Stream size                              : 3.86 GiB (59%)
  • Writing library                          : x265 3.5+16-7955046e7:[Windows][GCC 11.2.0][64 bit] 10bit
  • Encoding settings                        : cpuid=533541111039 / frame-threads=4 / numa-pools=16 / wpp / no-pmode / no-pme / no-psnr / no-ssim / log-level=2 / input-csp=1 / input-res=1920x800 / interlace=0 / total-frames=0 / level-idc=0 / high-tier=1 / uhd-bd=0 / ref=6 / no-allow-non-conformance / no-repeat-headers / annexb / no-aud / no-eob / no-eos / no-hrd / info / hash=0 / no-temporal-layers / no-open-gop / min-keyint=23 / keyint=250 / gop-lookahead=0 / bframes=12 / b-adapt=2 / b-pyramid / bframe-bias=0 / rc-lookahead=48 / lookahead-slices=5 / NTMzNTQ=uuDQuD2mJt9fsCf / scenecut=40 / no-hist-scenecut / radl=0 / no-splice / no-intra-refresh / ctu=64 / min-cu-size=8 / no-rect / no-amp / max-tu-size=32 / tu-inter-depth=1 / tu-intra-depth=1 / limit-tu=0 / rdoq-level=0 / dynamic-rd=0.00 / no-ssim-rd / signhide / no-tskip / nr-intra=0 / nr-inter=0 / no-constrained-intra / no-strong-intra-smoothing / max-merge=3 / limit-refs=1 / no-limit-modes / me=3 / subme=7 / merange=64 / temporal-mvp / no-frame-dup / no-hme / weightp / weightb / no-analyze-src-pics / deblock=0:0 / no-sao / no-sao-non-deblock / rd=4 / selective-sao=0 / early-skip / rskip / no-fast-intra / no-tskip-fast / no-cu-lossless / b-intra / no-splitrd-skip / rdpenalty=0 / psy-rd=2.00 / psy-rdoq=0.00 / no-rd-refine / no-lossless / cbqpoffs=0 / crqpoffs=0 / rc=crf / crf=16.0 / qcomp=0.60 / qpstep=4 / stats-write=0 / stats-read=0 / ipratio=1.40 / pbratio=1.30 / aq-mode=1 / aq-strength=1.00 / cutree / zone-count=0 / no-strict-cbr / qg-size=32 / no-rc-grain / qpmax=69 / qpmin=0 / no-const-vbv / sar=0 / overscan=0 / videoformat=5 / range=0 / colorprim=2 / transfer=2 / colormatrix=2 / chromaloc=0 / display-window=0 / cll=0,0 / min-luma=0 / max-luma=1023 / log2-max-poc-lsb=8 / vui-timing-info / vui-hrd-info / slices=1 / no-opt-qp-pps / no-opt-ref-list-length-pps / no-multi-pass-opt-rps / scenecut-bias=0.05 / hist-threshold=0.03 / no-opt-cu-delta-qp / aq-motion / no-hdr10 / no-hdr10-opt / no-dhdr10-opt / no-idr-recovery-sei / analysis-reuse-level=0 / analysis-save-reuse-level=0 / analysis-load-reuse-level=0 / scale-factor=0 / refine-intra=0 / refine-inter=0 / refine-mv=1 / refine-ctu-distortion=0 / no-limit-sao / ctu-info=0 / no-lowpass-dct / refine-analysis-type=0 / copy-pic=1 / max-ausize-factor=1.0 / no-dynamic-refine / no-single-sei / no-hevc-aq / no-svt / no-field / qp-adaptation-range=1.00 / scenecut-aware-qp=0conformance-window-offsets / right=0 / bottom=0 / NTMzNTQ= / decoder-max-rate=0 / no-vbv-live-multi-pass
  • Default                                  : Yes
  • Forced                                   : No
  • Audio
  • ID                                       : 2
  • ID in the original source medium         : 4352 (0x1100)
  • Format                                   : DTS XLL
  • Format/Info                              : Digital Theater Systems
  • Commercial name                          : DTS-HD Master Audio
  • Codec ID                                 : A_DTS
  • Duration                                 : 1 h 44 min
  • Bit rate mode                            : Variable
  • Bit rate                                 : 3 582 kb/s
  • Channel(s)                               : 6 channels
  • Channel layout                           : C L R Ls Rs LFE
  • Sampling rate                            : 48.0 kHz
  • Frame rate                               : 93.750 FPS (512 SPF)
  • Bit depth                                : 24 bits
  • Compression mode                         : Lossless
  • Stream size                              : 2.63 GiB (40%)
  • Language                                 : English
  • Default                                  : Yes
  • Forced                                   : No
  • Original source medium                   : Blu-ray
  • Text #1
  • ID                                       : 3
  • ID in the original source medium         : 4612 (0x1204)
  • Format                                   : PGS
  • Muxing mode                              : zlib
  • Codec ID                                 : S_HDMV/PGS
  • Codec ID/Info                            : Picture based subtitle format used on BDs/HD-DVDs
  • Duration                                 : 1 h 35 min
  • Bit rate                                 : 21.8 kb/s
  • Count of elements                        : 1374
  • Stream size                              : 14.9 MiB (0%)
  • Title                                    : CHS&ENG
  • Language                                 : Chinese
  • Default                                  : Yes
  • Forced                                   : No
  • Original source medium                   : Blu-ray
  • Text #2
  • ID                                       : 4
  • ID in the original source medium         : 4613 (0x1205)
  • Format                                   : PGS
  • Muxing mode                              : zlib
  • Codec ID                                 : S_HDMV/PGS
  • Codec ID/Info                            : Picture based subtitle format used on BDs/HD-DVDs
  • Duration                                 : 1 h 35 min
  • Bit rate                                 : 22.0 kb/s
  • Count of elements                        : 1374
  • Stream size                              : 15.1 MiB (0%)
  • Title                                    : CHT&ENG
  • Language                                 : Chinese
  • Default                                  : Yes
  • Forced                                   : No
  • Original source medium                   : Blu-ray
  • Text #3
  • ID                                       : 5
  • ID in the original source medium         : 4610 (0x1202)
  • Format                                   : PGS
  • Muxing mode                              : zlib
  • Codec ID                                 : S_HDMV/PGS
  • Codec ID/Info                            : Picture based subtitle format used on BDs/HD-DVDs
  • Duration                                 : 1 h 35 min
  • Bit rate                                 : 11.7 kb/s
  • Count of elements                        : 1374
  • Stream size                              : 8.00 MiB (0%)
  • Title                                    : CHS
  • Language                                 : Chinese
  • Default                                  : Yes
  • Forced                                   : No
  • Original source medium                   : Blu-ray
  • Text #4
  • ID                                       : 6
  • ID in the original source medium         : 4611 (0x1203)
  • Format                                   : PGS
  • Muxing mode                              : zlib
  • Codec ID                                 : S_HDMV/PGS
  • Codec ID/Info                            : Picture based subtitle format used on BDs/HD-DVDs
  • Duration                                 : 1 h 35 min
  • Bit rate                                 : 11.9 kb/s
  • Count of elements                        : 1374
  • Stream size                              : 8.17 MiB (0%)
  • Title                                    : CHT
  • Language                                 : Chinese
  • Default                                  : Yes
  • Forced                                   : No
  • Original source medium                   : Blu-ray
  • Text #5
  • ID                                       : 7
  • ID in the original source medium         : 4608 (0x1200)
  • Format                                   : PGS
  • Muxing mode                              : zlib
  • Codec ID                                 : S_HDMV/PGS
  • Codec ID/Info                            : Picture based subtitle format used on BDs/HD-DVDs
  • Duration                                 : 1 h 35 min
  • Bit rate                                 : 19.5 kb/s
  • Count of elements                        : 1784
  • Stream size                              : 13.4 MiB (0%)
  • Title                                    : ENG
  • Language                                 : English
  • Default                                  : Yes
  • Forced                                   : No
  • Original source medium                   : Blu-ray
  • Menu
  • 00:00:00.000                             : en:第 01 章
  • 00:04:39.988                             : en:第 02 章
  • 00:09:50.923                             : en:第 03 章
  • 00:14:23.696                             : en:第 04 章
  • 00:21:01.593                             : en:第 05 章
  • 00:28:27.288                             : en:第 06 章
  • 00:36:04.370                             : en:第 07 章
  • 00:42:50.859                             : en:第 08 章
  • 00:47:34.935                             : en:第 09 章
  • 00:51:06.271                             : en:第 10 章
  • 00:56:27.133                             : en:第 11 章
  • 01:02:43.468                             : en:第 12 章
  • 01:08:45.371                             : en:第 13 章
  • 01:18:05.847                             : en:第 14 章
  • 01:24:19.471                             : en:第 15 章
  • 01:33:33.983                             : en:第 16 章


Tides.2021.BluRay.1080p.DTS.HDMA5.1.x265.10bit-Xiaomi.torrent

23.13 KB, 下载次数: 1, 下载积分: 金币 -1

温馨提示

记得善用社区搜索功能,那里可能会有你想要的资源;论坛站内搜索

如果你有什么需要的资源可以去悬赏问答发帖,求助社区的网友,我们会在第一时间给你回复哦;资源求档

对于本社区如果你有任何好建议或者相关合作可以随时与我们联系,或者在反馈建议发帖,您的支持,是我们发展的最大动力;投诉建议

精彩评论37

云随风2019 发表于 2022-11-22 06:01 来自手机 | 显示全部楼层
很好看所以收藏起来了

温馨提示

记得善用社区搜索功能,那里可能会有你想要的资源;论坛站内搜索

如果你有什么需要的资源可以去悬赏问答发帖,求助社区的网友,我们会在第一时间给你回复哦;资源求档

对于本社区如果你有任何好建议或者相关合作可以随时与我们联系,或者在反馈建议发帖,您的支持,是我们发展的最大动力;投诉建议

nn007 发表于 2022-11-24 10:37 | 显示全部楼层
感谢楼主分享

温馨提示

记得善用社区搜索功能,那里可能会有你想要的资源;论坛站内搜索

如果你有什么需要的资源可以去悬赏问答发帖,求助社区的网友,我们会在第一时间给你回复哦;资源求档

对于本社区如果你有任何好建议或者相关合作可以随时与我们联系,或者在反馈建议发帖,您的支持,是我们发展的最大动力;投诉建议

竹排江中游 发表于 2022-11-28 07:26 来自手机 | 显示全部楼层
感谢楼主分享啊

温馨提示

记得善用社区搜索功能,那里可能会有你想要的资源;论坛站内搜索

如果你有什么需要的资源可以去悬赏问答发帖,求助社区的网友,我们会在第一时间给你回复哦;资源求档

对于本社区如果你有任何好建议或者相关合作可以随时与我们联系,或者在反馈建议发帖,您的支持,是我们发展的最大动力;投诉建议

nn007 发表于 2022-12-1 08:51 | 显示全部楼层
感谢楼主分享

温馨提示

记得善用社区搜索功能,那里可能会有你想要的资源;论坛站内搜索

如果你有什么需要的资源可以去悬赏问答发帖,求助社区的网友,我们会在第一时间给你回复哦;资源求档

对于本社区如果你有任何好建议或者相关合作可以随时与我们联系,或者在反馈建议发帖,您的支持,是我们发展的最大动力;投诉建议

yzhlzw 发表于 2022-12-1 09:53 | 显示全部楼层
非常感谢楼主了

温馨提示

记得善用社区搜索功能,那里可能会有你想要的资源;论坛站内搜索

如果你有什么需要的资源可以去悬赏问答发帖,求助社区的网友,我们会在第一时间给你回复哦;资源求档

对于本社区如果你有任何好建议或者相关合作可以随时与我们联系,或者在反馈建议发帖,您的支持,是我们发展的最大动力;投诉建议

271352718 发表于 2022-12-1 10:44 | 显示全部楼层
哦  原来没有看过这个电影 多谢分享

温馨提示

记得善用社区搜索功能,那里可能会有你想要的资源;论坛站内搜索

如果你有什么需要的资源可以去悬赏问答发帖,求助社区的网友,我们会在第一时间给你回复哦;资源求档

对于本社区如果你有任何好建议或者相关合作可以随时与我们联系,或者在反馈建议发帖,您的支持,是我们发展的最大动力;投诉建议

腥气 发表于 2022-12-4 04:29 | 显示全部楼层
感恩分享多谢

温馨提示

记得善用社区搜索功能,那里可能会有你想要的资源;论坛站内搜索

如果你有什么需要的资源可以去悬赏问答发帖,求助社区的网友,我们会在第一时间给你回复哦;资源求档

对于本社区如果你有任何好建议或者相关合作可以随时与我们联系,或者在反馈建议发帖,您的支持,是我们发展的最大动力;投诉建议

hdchy 发表于 2022-12-4 07:50 | 显示全部楼层
感谢楼主分享!
每天一签到,证明我来过8资源分享论坛...
祭奠‘这羁绊 发表于 2022-12-7 16:43 | 显示全部楼层
多谢,楼主终于找到了

温馨提示

记得善用社区搜索功能,那里可能会有你想要的资源;论坛站内搜索

如果你有什么需要的资源可以去悬赏问答发帖,求助社区的网友,我们会在第一时间给你回复哦;资源求档

对于本社区如果你有任何好建议或者相关合作可以随时与我们联系,或者在反馈建议发帖,您的支持,是我们发展的最大动力;投诉建议

yclove1234w 发表于 2022-12-13 20:11 | 显示全部楼层
很好看所以收藏起来了

温馨提示

记得善用社区搜索功能,那里可能会有你想要的资源;论坛站内搜索

如果你有什么需要的资源可以去悬赏问答发帖,求助社区的网友,我们会在第一时间给你回复哦;资源求档

对于本社区如果你有任何好建议或者相关合作可以随时与我们联系,或者在反馈建议发帖,您的支持,是我们发展的最大动力;投诉建议

本版积分规则
提醒:禁止复制他人回复等『恶意灌水』行为,违者重罚!

发表新帖
阅读排行更多+
快速回复 收藏帖子 返回列表
即刻加入,享受更多精彩。 会员登录[Login] 注册[Register]
资源分享,资源共享。
官方Facebok
Facebook.com/8ziyuan
意见反馈:[email protected]

关注我们的官方Twitter

Powered by Discuz! © 2016-2024 8ziyuan.com Inc. Protected by CloudFlare | 小黑屋 | 8资源分享论坛 | RSS订阅 | 手机版 | 联系我们