请选择 进入手机版 | 继续访问电脑版

[喜剧片] 二流警探[中英字幕].The.Other.Guys.2010.BluRay.1080p.DTS-HD.MA.5.1.x26...

  [复制链接]
唐章小小社区官方认证 发表于 2022-11-22 01:00 | 显示全部楼层 |阅读模式 打印 上一主题 下一主题
6350957ec2795.jpg

◎标  题 二流警探
◎译  名 贱贱刑警 / B咖战警 / The B Team
◎片  名 The Other Guys
◎年  代 2010
◎产  地 美国
◎类  别 喜剧 / 动作 / 犯罪
◎语  言 英语
◎上映日期 2010-08-06
◎IMDb评分 6.6/10 (262817人评价)
◎IMDb链接 https://www.imdb.com/title/tt1386588/
◎豆瓣评分 6.1/10 (13028人评价)
◎豆瓣链接 https://movie.douban.com/subject/3569915/
◎片  长 107分钟
◎导  演 亚当·麦凯 Adam McKay
◎编  剧 克里斯·亨奇 Chris Henchy
       亚当·麦凯 Adam McKay
◎演  员 马克·沃尔伯格 Mark Wahlberg
       威尔·法瑞尔 Will Ferrell
       道恩·强森 Dwayne Johnson
       塞缪尔·杰克逊 Samuel L. Jackson
       伊娃·门德斯 Eva Mendes
       雷·史蒂文森 Ray Stevenson
       迈克尔·基顿 Michael Keaton
       史蒂夫·库根 Steve Coogan
       皮特·安蒂克 Pete Antico
       罗伊·T·安德森 Roy T. Anderson
        Derek Hedlund
        Scott J. Klein
        Shelby Kovant
       Bill Walters Bill Walters
       萨曼塔·马尔多纳多 Samantha Maldonado
       利亚姆·费格森 Liam Ferguson
        Lane Simpson
        Lee M. Cunningham
       贾利尔·杰伊·林奇 Jalil Jay Lynch
       史蒂文·韦斯 Steven Weisz
       波姬·小丝 Brooke Shields
       崔西·摩根 Tracy Morgan
       罗茜·佩雷兹 Rosie Perez
       小达蒙·韦恩斯 Damon Wayans Jr.
       罗伯·马尔斯 Rob Mars
       C.C. Taylor C.C. Taylor
       本·施瓦茨 Ben Schwartz
       帕特里克·克劳利 Patrick Crowley
       丹尼尔·B·马丁 Daniel B. Martin
       Brianne Moncrief Brianne Moncrief
       Dennis Larkin Dennis Larkin
       Marty Garcia Marty Garcia
       莱娜泰勒 Lana Taylor
       罗伯·里格尔 Rob Riggle
       彼得·康博伊 Peter Conboy
       凯文·科林斯 Kevin Collins
       林赛·斯隆 Lindsay Sloane
       安妮·海切 Anne Heche
       Peter Riga Peter Riga
       约瑟夫·索默 Josef Sommer
       兰内特·弗吉特 Lanette Fugit
       Sean Marrinan Sean Marrinan
       萨拉·德罗萨 Sara DeRosa
       乔·多林斯基 Joe Dolinsky
       本杰明·凯恩 Benjamin Kanes
       塔拉·科普兰 Tara Copeland
       凯文·坎农 Kevin Cannon
       德瑞克·基特 Derek Jeter
       Chris Astoyan Chris Astoyan
       Sara Chase Sara Chase
       Alison Becker Alison Becker
       拉内尔·斯托瓦尔 Larnell Stovall
       罗布·许贝尔 Rob Huebel
       Mark J. Parker Mark J. Parker
       Paul Thornton Paul Thornton
       Peter Defeo Peter Defeo
       亚当·麦凯 Adam McKay
       克里斯·亨奇 Chris Henchy
       威尔·法瑞尔 Will Ferrell
       帕特里克·克劳利 Patrick Crowley
       Jennifer Euston Jennifer Euston
       Allison Jones Allison Jones
       小乔治·德蒂塔 George DeTitta Jr.
       Jim Gloster Jim Gloster
       克莱顿·哈特利 Clayton Hartley
       Carol Ramsey Carol Ramsey
       唐纳德·莫瓦特 Donald Mowat
       Adam Brandy Adam Brandy
       Robin Day Robin Day
       约翰·西尔维斯特 John Silvestri
       David Ticotin David Ticotin
       康拉德·E·帕尔米萨诺 Conrad E. Palmisano
       Kristen Ploucha Kristen Ploucha
       Brad Martin Brad Martin
       Guillaume Renberg Guillaume Renberg
       Martin Rosenberg Martin Rosenberg
       丹·克劳利 Dan Crawley
       丹尼斯·A·马丁 Dennis A. Martin
       Camille Geier Camille Geier
       Jason Brackett Jason Brackett

◎简  介
  Highsmith(塞缪尔·杰克逊 Samuel L. Jackson 饰)和Danson(道恩·强森 Dwayne Johnson 饰)是一对无坚不摧的完美搭档,纽约警局里的超级精英,也是警界人士的崇拜对象。相比两人,一副呆子样的Allen(威尔·法瑞尔 Will Ferrell 饰)和身手好但脾气暴躁的Terry(马克·沃尔伯格 Mark Wahlberg 饰)却是底层警员,除了扶老太太过马路或者劝架之类闲杂事等,他俩几乎无所事事。一次偶然机会,却让他们得以替补偶像出更,两人自然不会放过这个出头的机会,但二人不性格不同、办事风格更是南辕北辙……                                    
                                最终,这一对难兄难弟是否能顺利完成任务,让众人对他们刮目相看?
  • ##### MediaInfo ######
  • General
  • Unique ID                                : 245304719664794138564143675919888410970 (0xB88BF8735B29262E3760630C8C49E95A)
  • Complete name                            : The.Other.Guys.2010.BluRay.1080p.DTS-HD.MA.5.1.x265.10bit-Xiaomi.mkv
  • Format                                   : Matroska
  • Format version                           : Version 4
  • File size                                : 8.50 GiB
  • Duration                                 : 1 h 47 min
  • Overall bit rate mode                    : Variable
  • Overall bit rate                         : 11.3 Mb/s
  • Encoded date                             : UTC 2020-10-04 01:40:34
  • Writing application                      : mkvmerge v50.0.0 ('Awakenings') 64-bit
  • Writing library                          : libebml v1.4.0 + libmatroska v1.6.2
  • Video
  • ID                                       : 1
  • Format                                   : HEVC
  • Format/Info                              : High Efficiency Video Coding
  • Format profile                           : Main [email protected]@High
  • Codec ID                                 : V_MPEGH/ISO/HEVC
  • Duration                                 : 1 h 47 min
  • Bit rate                                 : 8 489 kb/s
  • Width                                    : 1 920 pixels
  • Height                                   : 804 pixels
  • Display aspect ratio                     : 2.40:1
  • Frame rate mode                          : Constant
  • Frame rate                               : 23.976 (24000/1001/53354) FPS
  • Color space                              : YUV
  • Chroma subsampling                       : 4:2:0
  • Bit depth                                : 10 bits
  • Bits/(Pixel*Frame)                       : 0.229
  • Stream size                              : 6.37 GiB (75%)
  • Writing library                          : x265 3.4+7-g38774073d:[Windows][GCC 10.1.0][64 bit] 10bit
  • Encoding settings                        : cpuid=533541111039 / frame-threads=4 / numa-pools=16 / wpp / no-pmode / no-pme / no-psnr / no-ssim / log-level=2 / input-csp=1 / input-res=1920x804 / interlace=0 / total-frames=154584 / level-idc=51 / high-tier=1 / uhd-bd=0 / ref=5 / no-allow-non-conformance / no-repeat-headers / annexb / no-aud / no-hrd / info / hash=0 / no-temporal-layers / no-open-gop / min-keyint=23 / keyint=250 / gop-lookahead=0 / bframes=12 / b-adapt=2 / b-pyramid / bframe-bias=0 / rc-lookahead=60 / lookahead-slices=0 / NTMzNTQ=uuDQuD2mJt9fsCf / scenecut=40 / hist-scenecut=0 / radl=0 / no-splice / no-intra-refresh / ctu=32 / min-cu-size=8 / rect / amp / max-tu-size=32 / tu-inter-depth=4 / tu-intra-depth=4 / limit-tu=0 / rdoq-level=2 / dynamic-rd=0.00 / no-ssim-rd / signhide / no-tskip / nr-intra=0 / nr-inter=0 / no-constrained-intra / no-strong-intra-smoothing / max-merge=5 / limit-refs=0 / no-limit-modes / me=3 / subme=4 / merange=48 / temporal-mvp / no-frame-dup / no-hme / weightp / weightb / no-analyze-src-pics / deblock=-1:-1 / no-sao / no-sao-non-deblock / rd=4 / selective-sao=0 / no-early-skip / rskip / no-fast-intra / no-tskip-fast / no-cu-lossless / b-intra / no-splitrd-skip / rdpenalty=1 / psy-rd=2.00 / psy-rdoq=5.00 / no-rd-refine / no-lossless / cbqpoffs=0 / crqpoffs=0 / rc=crf / crf=21.0 / qcomp=0.65 / qpstep=4 / stats-write=0 / stats-read=0 / vbv-maxrate=160000 / vbv-bufsize=160000 / vbv-init=0.9 / crf-max=0.0 / crf-min=0.0 / ipratio=1.40 / pbratio=1.20 / aq-mode=3 / aq-strength=0.90 / cutree / zone-count=0 / no-strict-cbr / qg-size=32 / no-rc-grain / qpmax=69 / qpmin=0 / no-const-vbv / sar=0 / overscan=0 / videoformat=5 / range=0 / colorprim=1 / transfer=1 / colormatrix=1 / chromaloc=0 / display-window=0 / cll=0,0 / min-luma=0 / max-luma=1023 / log2-max-poc-lsb=8 / vui-timing-info / vui-hrd-info / slices=1 / no-opt-qp-pps / no-opt-ref-list-length-pps / no-multi-pass-opt-rps / scenecut-bias=0.05 / hist-threshold=0.01 / no-opt-cu-delta-qp / no-aq-motion / no-hdr10 / no-hdr10-opt / no-dhdr10-opt / no-idr-recovery-sei / analysis-reuse-level=0 / analysis-save-reuse-level=0 / analysis-load-reuse-level=0 / scale-factor=0 / refine-intra=0 / refine-inter=0 / refine-mv=1 / refine-ctu-distortion=0 / no-limit-sao / ctu-info=0 / no-lowpass-dct / refine-analysis-type=0 / copy-pic=1 / max-ausize-factor=1.0 / no-dynamic-refine / no-single-sei / no-hevc-aq / no-svt / no-field / qp-adaptation-range=1.00 / no-scenecut-aware-qpconformance-window-offsets / right=0 / bottom=0 / NTMzNTQ= / decoder-max-rate=0
  • Language                                 : English
  • Default                                  : Yes
  • Forced                                   : No
  • Color range                              : Limited
  • Color primaries                          : BT.709
  • Transfer characteristics                 : BT.709
  • Matrix coefficients                      : BT.709
  • Audio
  • ID                                       : 2
  • Format                                   : DTS XLL
  • Format/Info                              : Digital Theater Systems
  • Commercial name                          : DTS-HD Master Audio
  • Codec ID                                 : A_DTS
  • Duration                                 : 1 h 47 min
  • Bit rate mode                            : Variable
  • Bit rate                                 : 2 776 kb/s
  • Channel(s)                               : 6 channels
  • Channel layout                           : C L R Ls Rs LFE
  • Sampling rate                            : 48.0 kHz
  • Frame rate                               : 93.750 FPS (512 SPF)
  • Bit depth                                : 24 bits
  • Compression mode                         : Lossless
  • Stream size                              : 2.08 GiB (25%)
  • Language                                 : English
  • Default                                  : Yes
  • Forced                                   : No
  • Text #1
  • ID                                       : 3
  • Format                                   : PGS
  • Muxing mode                              : zlib
  • Codec ID                                 : S_HDMV/PGS
  • Codec ID/Info                            : Picture based subtitle format used on BDs/HD-DVDs
  • Duration                                 : 1 h 46 min
  • Bit rate                                 : 60.7 kb/s
  • Count of elements                        : 3617
  • Stream size                              : 46.2 MiB (1%)
  • Language                                 : English
  • Default                                  : Yes
  • Forced                                   : No
  • Text #2
  • ID                                       : 4
  • Format                                   : PGS
  • Muxing mode                              : zlib
  • Codec ID                                 : S_HDMV/PGS
  • Codec ID/Info                            : Picture based subtitle format used on BDs/HD-DVDs
  • Duration                                 : 1 h 46 min
  • Bit rate                                 : 42.8 kb/s
  • Count of elements                        : 3715
  • Stream size                              : 32.6 MiB (0%)
  • Language                                 : Chinese
  • Default                                  : No
  • Forced                                   : No
  • Text #3
  • ID                                       : 5
  • Format                                   : PGS
  • Muxing mode                              : zlib
  • Codec ID                                 : S_HDMV/PGS
  • Codec ID/Info                            : Picture based subtitle format used on BDs/HD-DVDs
  • Duration                                 : 1 h 46 min
  • Bit rate                                 : 53.4 kb/s
  • Count of elements                        : 3715
  • Stream size                              : 40.7 MiB (0%)
  • Language                                 : Chinese
  • Default                                  : No
  • Forced                                   : No
  • Menu
  • 00:00:00.000                             : en:第 01 章
  • 00:09:15.805                             : en:第 02 章
  • 00:13:24.595                             : en:第 03 章
  • 00:18:59.138                             : en:第 04 章
  • 00:26:06.732                             : en:第 05 章
  • 00:31:09.326                             : en:第 06 章
  • 00:35:42.766                             : en:第 07 章
  • 00:41:16.974                             : en:第 08 章
  • 00:48:16.310                             : en:第 09 章
  • 00:55:32.621                             : en:第 10 章
  • 01:01:22.429                             : en:第 11 章
  • 01:09:32.001                             : en:第 12 章
  • 01:17:23.013                             : en:第 13 章
  • 01:23:43.560                             : en:第 14 章
  • 01:30:27.881                             : en:第 15 章
  • 01:36:43.381                             : en:第 16 章


The.Other.Guys.2010.BluRay.1080p.DTS-HD.MA.5.1.x265.10bit-Xiaomi.torrent

28.27 KB, 下载次数: 5, 下载积分: 金币 -1

温馨提示

记得善用社区搜索功能,那里可能会有你想要的资源;论坛站内搜索

如果你有什么需要的资源可以去悬赏问答发帖,求助社区的网友,我们会在第一时间给你回复哦;资源求档

对于本社区如果你有任何好建议或者相关合作可以随时与我们联系,或者在反馈建议发帖,您的支持,是我们发展的最大动力;投诉建议

精彩评论32

zhoukaiyu 发表于 2022-11-22 06:01 | 显示全部楼层
终于找到了不容易

温馨提示

记得善用社区搜索功能,那里可能会有你想要的资源;论坛站内搜索

如果你有什么需要的资源可以去悬赏问答发帖,求助社区的网友,我们会在第一时间给你回复哦;资源求档

对于本社区如果你有任何好建议或者相关合作可以随时与我们联系,或者在反馈建议发帖,您的支持,是我们发展的最大动力;投诉建议

nn007 发表于 2022-11-24 10:34 | 显示全部楼层
感谢楼主分享

温馨提示

记得善用社区搜索功能,那里可能会有你想要的资源;论坛站内搜索

如果你有什么需要的资源可以去悬赏问答发帖,求助社区的网友,我们会在第一时间给你回复哦;资源求档

对于本社区如果你有任何好建议或者相关合作可以随时与我们联系,或者在反馈建议发帖,您的支持,是我们发展的最大动力;投诉建议

svsbj 发表于 2022-11-28 07:26 | 显示全部楼层
感谢分享已收藏

温馨提示

记得善用社区搜索功能,那里可能会有你想要的资源;论坛站内搜索

如果你有什么需要的资源可以去悬赏问答发帖,求助社区的网友,我们会在第一时间给你回复哦;资源求档

对于本社区如果你有任何好建议或者相关合作可以随时与我们联系,或者在反馈建议发帖,您的支持,是我们发展的最大动力;投诉建议

KryFinal 发表于 2022-12-5 15:46 来自手机 | 显示全部楼层
感谢分享已收藏

温馨提示

记得善用社区搜索功能,那里可能会有你想要的资源;论坛站内搜索

如果你有什么需要的资源可以去悬赏问答发帖,求助社区的网友,我们会在第一时间给你回复哦;资源求档

对于本社区如果你有任何好建议或者相关合作可以随时与我们联系,或者在反馈建议发帖,您的支持,是我们发展的最大动力;投诉建议

Rtlners 发表于 2022-12-7 17:12 | 显示全部楼层
谢谢分享太赞了

温馨提示

记得善用社区搜索功能,那里可能会有你想要的资源;论坛站内搜索

如果你有什么需要的资源可以去悬赏问答发帖,求助社区的网友,我们会在第一时间给你回复哦;资源求档

对于本社区如果你有任何好建议或者相关合作可以随时与我们联系,或者在反馈建议发帖,您的支持,是我们发展的最大动力;投诉建议

Zz61031 发表于 2022-12-13 20:11 | 显示全部楼层
感谢分享已经收藏

温馨提示

记得善用社区搜索功能,那里可能会有你想要的资源;论坛站内搜索

如果你有什么需要的资源可以去悬赏问答发帖,求助社区的网友,我们会在第一时间给你回复哦;资源求档

对于本社区如果你有任何好建议或者相关合作可以随时与我们联系,或者在反馈建议发帖,您的支持,是我们发展的最大动力;投诉建议

a8690174480 发表于 2022-12-17 18:36 | 显示全部楼层
谢谢分享太赞了

温馨提示

记得善用社区搜索功能,那里可能会有你想要的资源;论坛站内搜索

如果你有什么需要的资源可以去悬赏问答发帖,求助社区的网友,我们会在第一时间给你回复哦;资源求档

对于本社区如果你有任何好建议或者相关合作可以随时与我们联系,或者在反馈建议发帖,您的支持,是我们发展的最大动力;投诉建议

qiuqiu9090z 发表于 2022-12-21 07:13 | 显示全部楼层
谢谢分享太赞了

温馨提示

记得善用社区搜索功能,那里可能会有你想要的资源;论坛站内搜索

如果你有什么需要的资源可以去悬赏问答发帖,求助社区的网友,我们会在第一时间给你回复哦;资源求档

对于本社区如果你有任何好建议或者相关合作可以随时与我们联系,或者在反馈建议发帖,您的支持,是我们发展的最大动力;投诉建议

nn007 发表于 2022-12-21 08:36 | 显示全部楼层
谢谢分享好电影!!!!!!!

温馨提示

记得善用社区搜索功能,那里可能会有你想要的资源;论坛站内搜索

如果你有什么需要的资源可以去悬赏问答发帖,求助社区的网友,我们会在第一时间给你回复哦;资源求档

对于本社区如果你有任何好建议或者相关合作可以随时与我们联系,或者在反馈建议发帖,您的支持,是我们发展的最大动力;投诉建议

恐惧散播器┾♂ 发表于 2022-12-23 14:55 | 显示全部楼层
感恩分享多谢

温馨提示

记得善用社区搜索功能,那里可能会有你想要的资源;论坛站内搜索

如果你有什么需要的资源可以去悬赏问答发帖,求助社区的网友,我们会在第一时间给你回复哦;资源求档

对于本社区如果你有任何好建议或者相关合作可以随时与我们联系,或者在反馈建议发帖,您的支持,是我们发展的最大动力;投诉建议

本版积分规则
提醒:禁止复制他人回复等『恶意灌水』行为,违者重罚!

发表新帖
阅读排行更多+
快速回复 收藏帖子 返回列表
即刻加入,享受更多精彩。 会员登录[Login] 注册[Register]
资源分享,资源共享。
官方Facebok
Facebook.com/8ziyuan
意见反馈:[email protected]

关注我们的官方Twitter

Powered by Discuz! © 2016-2024 8ziyuan.com Inc. Protected by CloudFlare | 小黑屋 | 8资源分享论坛 | RSS订阅 | 手机版 | 联系我们