请选择 进入手机版 | 继续访问电脑版

[动作片] 末日戒备[中文字幕].The.Peacemaker.1997.BluRay.1080p.DTS.5.1.x265.10bi...

  [复制链接]
唐章小小社区官方认证 发表于 2022-11-22 01:00 | 显示全部楼层 |阅读模式 打印 上一主题 下一主题
627fb2b6b8182.jpg

◎标  题 末日戒备
◎译  名 和平制造者 / 战略杀手 / 和平缔造者
◎片  名 The Peacemaker
◎年  代 1997
◎产  地 美国
◎类  别 动作 / 惊悚
◎语  言 英语 / 俄语 / 塞尔维亚语 / 克罗地亚语 / 波斯尼亚语 / 德语
◎上映日期 1997-09-26(美国)
◎IMDb评分 6/10 (56579人评价)
◎IMDb链接 https://www.imdb.com/title/tt0119874/
◎豆瓣评分 6.6/10 (4780人评价)
◎豆瓣链接 https://movie.douban.com/subject/1293506/
◎片  长 124 分钟
◎导  演 米密·莱德 Mimi Leder
◎编  剧 莱斯利·考伯恩 Leslie Cockburn
       安德鲁·考伯恩 Andrew Cockburn
       迈克尔·希弗 Michael Schiffer
◎演  员 乔治·克鲁尼 George Clooney
       妮可·基德曼 Nicole Kidman
       马塞尔·尤勒斯 Marcel Iures
       亚历山大·巴鲁耶夫 Aleksandr Baluev
       Rene Medvesek Rene Medvesek
       加里·韦恩兹 Gary Werntz
       兰道尔·巴蒂尼科夫 Randall Batinkoff
       吉姆·海尼 Jim Haynie
       亚历山大·斯特罗贝勒 Alexander Strobele
       霍特·麦克卡兰尼 Holt McCallany
       迈克尔·波特曼 Michael Boatman
       琼·科普兰 Joan Copeland
       卡洛斯·戈麦斯 Carlos Gómez
       阿明·缪勒-斯塔尔 Armin Mueller-Stahl
       Slavko Juraga Slavko Juraga
       Aleksandr Peskov Aleksandr Peskov
       德扬·阿西莫维奇 Dejan Acimovic
       马特·阿德勒 Matt Adler
       塔马拉·图尼 Tamara Tunie
       亚历山大·雅茨科 Aleksandr Yatsko
       阿迪纳·波特 Adina Porter
       Hubert Kramar Hubert Kramar
       阿尔玛·奎尔沃 Alma Cuervo
       塞巴斯蒂安·罗奇 Sebastian Roché
       布莱斯·科里根 Blaise Corrigan
       高兰·维斯耶克 Goran Visnjic
       杰·阿克沃内 Jay Acovone
       汉娜·莱德 Hannah Leder
       詹姆斯·科尔比 James Colby
       Jean Rogers Jean Rogers
       马特·温斯顿 Matt Winston
       泰瑞·塞尔皮科 Terry Serpico
       索姆-马修斯 Thom Mathews
       Jerry Dixon Jerry Dixon
       路易斯·穆斯蒂略 Louis Mustillo
       博兹达尔·斯密贾尼克 Bozidar Smiljanic
       迈克尔·波茨 Michael Potts
       Richard Poe Richard Poe
       斯洛博丹·迪米特里耶维奇 Slobodan Dimitrijevic
       Dave Simonds Dave Simonds
       查克·库珀 Chuck Cooper
       Jared Chandler Jared Chandler
       布兰科·拉斯蒂格 Branko Lustig
       Matthew Sussman Matthew Sussman
       伯尼·麦克伦尼 Bernie McInerney
       詹姆斯·杜蒙特 James DuMont
       亚历山大·昆泽内斯特罗夫 Alexander Kuznetsov
       布鲁斯·加里 Bruce Gray
       安德烈·胡勒斯 Endre Hules
       亚当·亚里克斯-马里 Adam Alexi-Malle
       Steve Altes Steve Altes
       里卡多·科德罗 Ricardo Cordero
        Christopher Del Gaudio
       约瑟夫·H·卡尼奥尔 Jason H. Karniol
       Steve Nuke Steve Nuke
        Francesco Paladino
       Todo Segalla Todo Segalla
       Oriana Nicole Tavoularis Oriana Nicole Tavoularis
       莱斯利·迪利 Leslie Dilley

◎标  签 动作 / 美国 / 反恐 / 乔治·克鲁尼 / NicoleKidman / GeorgeClooney / 美国电影 / 尼科尔·基德曼

◎简  介
    偏僻的俄罗斯驻防军区,两列火车相撞爆炸。随即发生了一场匪夷所思的核爆炸,俄罗斯境内造成重大伤亡。美国白宫反核走私情报部门的朱莉亚·凯利(妮可·基德曼 Nicole Kidman饰)博士怀疑这起核意外并非偶然发生的事故。为了追查这起爆炸的始末,查明背后的真相,朱莉亚与陆军特种部队的少尉托马斯·威尔(乔治·克鲁尼 George Clooney饰)受命展开调查。他们在艰苦的调查中,竟发现了一个惊天大阴谋。一名冒充政客的核恐怖分子已携带核弹头进入美国本土,欲炸毁设在纽约的联合国总部。                                    
                                  女导演咪咪·莱德的电影处女作《末日戒备》,根据资深调查记者安德鲁·科伯恩和莱斯利·科伯恩的文章改编而成,其中素材源于科伯恩夫妇收集的解密情报和真实新闻事件。
  • ##### MediaInfo ######
  • General
  • Unique ID                                : 74317904091889862221532668884982756403 (0x37E91B9189729E4067EE58F10960F433)
  • Complete name                            : The.Peacemaker.1997.BluRay.1080p.DTS.5.1.x265.10bit-Xiaomi.mkv
  • Format                                   : Matroska
  • Format version                           : Version 4
  • File size                                : 10.9 GiB
  • Duration                                 : 2 h 3 min
  • Overall bit rate mode                    : Variable
  • Overall bit rate                         : 12.6 Mb/s
  • Encoded date                             : UTC 2022-07-23 04:41:14
  • Writing application                      : mkvmerge v45.0.0 ('Heaven in Pennies') 64-bit
  • Writing library                          : libebml v1.3.10 + libmatroska v1.5.2
  • Video
  • ID                                       : 1
  • Format                                   : HEVC
  • Format/Info                              : High Efficiency Video Coding
  • Format profile                           : Main [email protected]@High
  • Codec ID                                 : V_MPEGH/ISO/HEVC
  • Duration                                 : 2 h 3 min
  • Bit rate                                 : 8 151 kb/s
  • Width                                    : 1 920 pixels
  • Height                                   : 816 pixels
  • Display aspect ratio                     : 2.35:1
  • Frame rate mode                          : Constant
  • Frame rate                               : 23.976 (24000/1001/53354) FPS
  • Color space                              : YUV
  • Chroma subsampling                       : 4:2:0
  • Bit depth                                : 10 bits
  • Bits/(Pixel*Frame)                       : 0.217
  • Stream size                              : 7.05 GiB (65%)
  • Writing library                          : x265 3.4+24-g6ed1c24a2:[Windows][GCC 10.2.1][64 bit] 10bit
  • Encoding settings                        : cpuid=533541111039 / frame-threads=4 / numa-pools=20 / wpp / pmode / pme / no-psnr / no-ssim / log-level=2 / input-csp=1 / input-res=1920x816 / interlace=0 / total-frames=178153 / level-idc=51 / high-tier=1 / uhd-bd=0 / ref=4 / no-allow-non-conformance / repeat-headers / annexb / no-aud / no-hrd / info / hash=0 / no-temporal-layers / no-open-gop / min-keyint=23 / keyint=250 / gop-lookahead=0 / bframes=8 / b-adapt=2 / b-pyramid / bframe-bias=0 / rc-lookahead=60 / lookahead-slices=5 / NTMzNTQ=uuDQuD2mJt9fsCf / scenecut=40 / hist-scenecut=0 / radl=0 / no-splice / no-intra-refresh / ctu=32 / min-cu-size=8 / no-rect / no-amp / max-tu-size=32 / tu-inter-depth=3 / tu-intra-depth=3 / limit-tu=0 / rdoq-level=0 / dynamic-rd=0.00 / no-ssim-rd / signhide / no-tskip / nr-intra=0 / nr-inter=0 / no-constrained-intra / strong-intra-smoothing / max-merge=3 / limit-refs=1 / no-limit-modes / me=2 / subme=5 / merange=48 / temporal-mvp / no-frame-dup / no-hme / weightp / weightb / no-analyze-src-pics / deblock=0:0 / no-sao / no-sao-non-deblock / rd=3 / selective-sao=0 / early-skip / rskip / no-fast-intra / no-tskip-fast / no-cu-lossless / b-intra / no-splitrd-skip / rdpenalty=1 / psy-rd=2.00 / psy-rdoq=0.00 / no-rd-refine / no-lossless / cbqpoffs=0 / crqpoffs=0 / rc=crf / crf=16.9 / qcomp=0.50 / qpstep=4 / stats-write=0 / stats-read=0 / vbv-maxrate=160000 / vbv-bufsize=160000 / vbv-init=0.9 / crf-max=0.0 / crf-min=0.0 / ipratio=1.40 / pbratio=1.20 / aq-mode=2 / aq-strength=0.90 / cutree / zone-count=0 / no-strict-cbr / qg-size=32 / no-rc-grain / qpmax=69 / qpmin=0 / no-const-vbv / sar=0 / overscan=0 / videoformat=5 / range=0 / colorprim=1 / transfer=1 / colormatrix=1 / chromaloc=0 / display-window=0 / cll=0,0 / min-luma=0 / max-luma=1023 / log2-max-poc-lsb=8 / vui-timing-info / vui-hrd-info / slices=1 / no-opt-qp-pps / no-opt-ref-list-length-pps / no-multi-pass-opt-rps / scenecut-bias=0.05 / hist-threshold=0.03 / no-opt-cu-delta-qp / no-aq-motion / no-hdr10 / no-hdr10-opt / no-dhdr10-opt / no-idr-recovery-sei / analysis-reuse-level=0 / analysis-save-reuse-level=0 / analysis-load-reuse-level=0 / scale-factor=0 / refine-intra=0 / refine-inter=0 / refine-mv=1 / refine-ctu-distortion=0 / no-limit-sao / ctu-info=0 / no-lowpass-dct / refine-analysis-type=0 / copy-pic=1 / max-ausize-factor=1.0 / no-dynamic-refine / no-single-sei / no-hevc-aq / no-svt / no-field / qp-adaptation-range=1.00 / no-scenecut-aware-qpconformance-window-offsets / right=0 / bottom=0 / NTMzNTQ= / decoder-max-rate=0 / no-vbv-live-multi-pass
  • Default                                  : Yes
  • Forced                                   : No
  • Color range                              : Limited
  • Color primaries                          : BT.709
  • Transfer characteristics                 : BT.709
  • Matrix coefficients                      : BT.709
  • Audio
  • ID                                       : 2
  • Format                                   : DTS XLL
  • Format/Info                              : Digital Theater Systems
  • Commercial name                          : DTS-HD Master Audio
  • Codec ID                                 : A_DTS
  • Duration                                 : 2 h 3 min
  • Bit rate mode                            : Variable
  • Bit rate                                 : 4 395 kb/s
  • Channel(s)                               : 6 channels
  • Channel layout                           : C L R Ls Rs LFE
  • Sampling rate                            : 48.0 kHz
  • Frame rate                               : 93.750 FPS (512 SPF)
  • Bit depth                                : 24 bits
  • Compression mode                         : Lossless
  • Stream size                              : 3.80 GiB (35%)
  • Language                                 : English
  • Default                                  : Yes
  • Forced                                   : No
  • Text #1
  • ID                                       : 3
  • Format                                   : PGS
  • Muxing mode                              : zlib
  • Codec ID                                 : S_HDMV/PGS
  • Codec ID/Info                            : Picture based subtitle format used on BDs/HD-DVDs
  • Duration                                 : 1 h 21 min
  • Bit rate                                 : 3 347 b/s
  • Count of elements                        : 203
  • Stream size                              : 1.96 MiB (0%)
  • Language                                 : English
  • Default                                  : No
  • Forced                                   : No
  • Text #2
  • ID                                       : 4
  • Format                                   : PGS
  • Muxing mode                              : zlib
  • Codec ID                                 : S_HDMV/PGS
  • Codec ID/Info                            : Picture based subtitle format used on BDs/HD-DVDs
  • Duration                                 : 1 h 58 min
  • Bit rate                                 : 27.2 kb/s
  • Count of elements                        : 2588
  • Stream size                              : 23.0 MiB (0%)
  • Language                                 : Chinese
  • Default                                  : No
  • Forced                                   : No
  • Text #3
  • ID                                       : 5
  • Format                                   : PGS
  • Muxing mode                              : zlib
  • Codec ID                                 : S_HDMV/PGS
  • Codec ID/Info                            : Picture based subtitle format used on BDs/HD-DVDs
  • Duration                                 : 1 h 58 min
  • Bit rate                                 : 26.2 kb/s
  • Count of elements                        : 2588
  • Stream size                              : 22.2 MiB (0%)
  • Language                                 : Chinese
  • Default                                  : Yes
  • Forced                                   : No
  • Text #4
  • ID                                       : 6
  • Format                                   : PGS
  • Muxing mode                              : zlib
  • Codec ID                                 : S_HDMV/PGS
  • Codec ID/Info                            : Picture based subtitle format used on BDs/HD-DVDs
  • Duration                                 : 1 h 56 min
  • Bit rate                                 : 46.7 kb/s
  • Count of elements                        : 2385
  • Stream size                              : 39.0 MiB (0%)
  • Language                                 : English
  • Default                                  : No
  • Forced                                   : No
  • Text #5
  • ID                                       : 7
  • Format                                   : PGS
  • Muxing mode                              : zlib
  • Codec ID                                 : S_HDMV/PGS
  • Codec ID/Info                            : Picture based subtitle format used on BDs/HD-DVDs
  • Duration                                 : 1 h 58 min
  • Bit rate                                 : 54.4 kb/s
  • Count of elements                        : 2895
  • Stream size                              : 46.0 MiB (0%)
  • Language                                 : English
  • Default                                  : No
  • Forced                                   : No
  • Menu
  • 00:00:00.000                             : en:Chapter 1
  • 00:15:49.740                             : en:Chapter 2
  • 00:16:53.637                             : en:Chapter 3
  • 00:27:00.535                             : en:Chapter 4
  • 00:29:03.450                             : en:Chapter 5
  • 00:41:51.509                             : en:Chapter 6
  • 00:47:45.696                             : en:Chapter 7
  • 00:59:10.338                             : en:Chapter 8
  • 01:09:28.747                             : en:Chapter 9
  • 01:11:38.836                             : en:Chapter 10
  • 01:17:04.411                             : en:Chapter 11
  • 01:24:15.925                             : en:Chapter 12
  • 01:29:25.985                             : en:Chapter 13
  • 01:39:12.071                             : en:Chapter 14
  • 01:53:08.782                             : en:Chapter 15
  • 01:57:54.859                             : en:Chapter 16


The.Peacemaker.1997.BluRay.1080p.DTS.5.1.x265.10bit-Xiaomi.torrent

34.26 KB, 下载次数: 16, 下载积分: 金币 -1

温馨提示

记得善用社区搜索功能,那里可能会有你想要的资源;论坛站内搜索

如果你有什么需要的资源可以去悬赏问答发帖,求助社区的网友,我们会在第一时间给你回复哦;资源求档

对于本社区如果你有任何好建议或者相关合作可以随时与我们联系,或者在反馈建议发帖,您的支持,是我们发展的最大动力;投诉建议

精彩评论39

Penniless 发表于 2022-11-22 06:01 来自手机 | 显示全部楼层
多谢楼主分享

温馨提示

记得善用社区搜索功能,那里可能会有你想要的资源;论坛站内搜索

如果你有什么需要的资源可以去悬赏问答发帖,求助社区的网友,我们会在第一时间给你回复哦;资源求档

对于本社区如果你有任何好建议或者相关合作可以随时与我们联系,或者在反馈建议发帖,您的支持,是我们发展的最大动力;投诉建议

-葬心葬爱° 发表于 2022-11-23 09:01 来自手机 | 显示全部楼层
感谢分享已收藏

温馨提示

记得善用社区搜索功能,那里可能会有你想要的资源;论坛站内搜索

如果你有什么需要的资源可以去悬赏问答发帖,求助社区的网友,我们会在第一时间给你回复哦;资源求档

对于本社区如果你有任何好建议或者相关合作可以随时与我们联系,或者在反馈建议发帖,您的支持,是我们发展的最大动力;投诉建议

带他滚 发表于 2022-11-27 09:44 | 显示全部楼层
多谢楼主,收藏了

温馨提示

记得善用社区搜索功能,那里可能会有你想要的资源;论坛站内搜索

如果你有什么需要的资源可以去悬赏问答发帖,求助社区的网友,我们会在第一时间给你回复哦;资源求档

对于本社区如果你有任何好建议或者相关合作可以随时与我们联系,或者在反馈建议发帖,您的支持,是我们发展的最大动力;投诉建议

請把小熊还给我 发表于 2022-11-28 04:48 | 显示全部楼层
谢谢楼主大人分享

温馨提示

记得善用社区搜索功能,那里可能会有你想要的资源;论坛站内搜索

如果你有什么需要的资源可以去悬赏问答发帖,求助社区的网友,我们会在第一时间给你回复哦;资源求档

对于本社区如果你有任何好建议或者相关合作可以随时与我们联系,或者在反馈建议发帖,您的支持,是我们发展的最大动力;投诉建议

taomitang 发表于 2022-12-3 16:53 | 显示全部楼层
感谢楼主分享,看剧情不错。

温馨提示

记得善用社区搜索功能,那里可能会有你想要的资源;论坛站内搜索

如果你有什么需要的资源可以去悬赏问答发帖,求助社区的网友,我们会在第一时间给你回复哦;资源求档

对于本社区如果你有任何好建议或者相关合作可以随时与我们联系,或者在反馈建议发帖,您的支持,是我们发展的最大动力;投诉建议

271352718 发表于 2022-12-7 14:03 | 显示全部楼层

感谢分享已收藏

温馨提示

记得善用社区搜索功能,那里可能会有你想要的资源;论坛站内搜索

如果你有什么需要的资源可以去悬赏问答发帖,求助社区的网友,我们会在第一时间给你回复哦;资源求档

对于本社区如果你有任何好建议或者相关合作可以随时与我们联系,或者在反馈建议发帖,您的支持,是我们发展的最大动力;投诉建议

shijian0316 发表于 2022-12-17 10:16 来自手机 | 显示全部楼层
好电影所以前来围观

温馨提示

记得善用社区搜索功能,那里可能会有你想要的资源;论坛站内搜索

如果你有什么需要的资源可以去悬赏问答发帖,求助社区的网友,我们会在第一时间给你回复哦;资源求档

对于本社区如果你有任何好建议或者相关合作可以随时与我们联系,或者在反馈建议发帖,您的支持,是我们发展的最大动力;投诉建议

hdchy 发表于 2022-12-17 11:52 | 显示全部楼层
谢谢楼主分享
每天一签到,证明我来过8资源分享论坛...
爱⌒轻易说出口 发表于 2022-12-17 18:36 | 显示全部楼层
谢谢楼主大人分享

温馨提示

记得善用社区搜索功能,那里可能会有你想要的资源;论坛站内搜索

如果你有什么需要的资源可以去悬赏问答发帖,求助社区的网友,我们会在第一时间给你回复哦;资源求档

对于本社区如果你有任何好建议或者相关合作可以随时与我们联系,或者在反馈建议发帖,您的支持,是我们发展的最大动力;投诉建议

leasonbl23 发表于 2022-12-17 22:28 | 显示全部楼层
感谢分享,还不错!!!

温馨提示

记得善用社区搜索功能,那里可能会有你想要的资源;论坛站内搜索

如果你有什么需要的资源可以去悬赏问答发帖,求助社区的网友,我们会在第一时间给你回复哦;资源求档

对于本社区如果你有任何好建议或者相关合作可以随时与我们联系,或者在反馈建议发帖,您的支持,是我们发展的最大动力;投诉建议

本版积分规则
提醒:禁止复制他人回复等『恶意灌水』行为,违者重罚!

发表新帖
阅读排行更多+
快速回复 收藏帖子 返回列表
即刻加入,享受更多精彩。 会员登录[Login] 注册[Register]
资源分享,资源共享。
官方Facebok
Facebook.com/8ziyuan
意见反馈:[email protected]

关注我们的官方Twitter

Powered by Discuz! © 2016-2024 8ziyuan.com Inc. Protected by CloudFlare | 小黑屋 | 8资源分享论坛 | RSS订阅 | 手机版 | 联系我们