请选择 进入手机版 | 继续访问电脑版

[剧情片] 楚门的世界[国英多音轨/中英字幕].The.Truman.Show.1998.BluRay.108...

  [复制链接]
唐章小小社区官方认证 发表于 2022-11-22 01:00 | 显示全部楼层 |阅读模式 打印 上一主题 下一主题
635bbdba1612f.jpg

◎标  题 楚门的世界
◎译  名 真人Show(港) / 真人戏 / 真人世界 / 楚门秀 / 真人秀
◎片  名 The Truman Show
◎年  代 1998
◎产  地 美国
◎类  别 剧情 / 科幻
◎语  言 英语
◎上映日期 1998-06-05(美国)
◎IMDb评分 8.1/10 (1002055人评价)
◎IMDb链接 https://www.imdb.com/title/tt0120382/
◎豆瓣评分 9.3/10 (1405409人评价)
◎豆瓣链接 https://movie.douban.com/subject/1292064/
◎片  长 103分钟
◎导  演 彼得·威尔 Peter Weir
◎编  剧 安德鲁·尼科尔 Andrew Niccol
◎演  员 金·凯瑞 Jim Carrey
       劳拉·琳妮 Laura Linney
       艾德·哈里斯 Ed Harris
       诺亚·艾默里奇 Noah Emmerich
       娜塔莎·麦克艾霍恩 Natascha McElhone
       安东尼·科隆 Antoni Corone
       马西娅·德波尼斯 Marcia DeBonis
       Adam Tomei Adam Tomei
       约翰·普莱舍 John Pleshette
       澳澜·琼斯 O-Lan Jones
       Joe Minjares Joe Minjares
       特里·金瑞利 Terry Camilleri
       乔尔·麦金农·米勒 Joel McKinnon Miller
       冈本玉二 Yuji Okumoto
       Jake Eberle Jake Eberle
       马克·麦考利 Marc Macaulay
       贾德森·沃恩 Judson Vaughn
       彼得·克劳斯 Peter Krause
       保罗·吉亚玛提 Paul Giamatti
       菲利普·贝克·霍尔 Philip Baker Hall
       梅丽莎·菲茨杰拉德 Melissa Fitzgerald
       Blair Slater Blair Slater
       珍妮特·米勒 Jeanette Miller
       霍兰德·泰勒 Holland Taylor
       布赖恩·戴拉特 Brian Delate
       哈里·谢尔 Harry Shearer
       布克哈德·范·达维兹 Burkhard von Dallwitz
       菲利普·格拉斯 Philip Glass

◎标  签 人性 / 经典 / 楚门的世界 / 人生 / 自由 / 美国 / 剧情 / JimCarrey

◎简  介
  楚门(金•凯瑞 Jim Carrey 饰)是一个平凡得不能再平凡的人,除了一些有些稀奇的经历之外——初恋女友突然失踪、溺水身亡的父亲忽然似乎又出现在眼前,他和绝大多数30多岁的美国男人绝无异样。这令他倍感失落。他也曾试过离开自己生活了多年的地方,但总因种种理由而不能成行。                                    
                                直到有一天,他忽然发觉自己似乎一直在被人跟踪,无论他走到哪里,干什么事情。这种感觉愈来愈强烈。楚门决定不惜一切代价逃离这个他生活了30多年的地方,去寻找他的初恋女友。                                    
                                但他却发现自己怎样也逃不出去。真相其实很残忍。
  • ##### MediaInfo ######
  • General
  • Unique ID                                : 294988961754921578125492567711420679501 (0xDDECCEB66731AF446E079BD07522854D)
  • Complete name                            : The.Truman.Show.1998.BluRay.1080p.TrueHD.5.1.x265.10bit-Xiaomi.mkv
  • Format                                   : Matroska
  • Format version                           : Version 4
  • File size                                : 10.2 GiB
  • Duration                                 : 1 h 42 min
  • Overall bit rate mode                    : Variable
  • Overall bit rate                         : 14.2 Mb/s
  • Encoded date                             : UTC 2020-09-16 10:16:13
  • Writing application                      : mkvmerge v50.0.0 ('Awakenings') 64-bit
  • Writing library                          : libebml v1.4.0 + libmatroska v1.6.2
  • Video
  • ID                                       : 1
  • Format                                   : HEVC
  • Format/Info                              : High Efficiency Video Coding
  • Format profile                           : Main [email protected]@High
  • Codec ID                                 : V_MPEGH/ISO/HEVC
  • Duration                                 : 1 h 42 min
  • Bit rate                                 : 8 889 kb/s
  • Width                                    : 1 920 pixels
  • Height                                   : 1 080 pixels
  • Display aspect ratio                     : 16:9
  • Frame rate mode                          : Constant
  • Frame rate                               : 23.976 (24000/1001/53354) FPS
  • Color space                              : YUV
  • Chroma subsampling                       : 4:2:0
  • Bit depth                                : 10 bits
  • Bits/(Pixel*Frame)                       : 0.179
  • Stream size                              : 6.39 GiB (63%)
  • Writing library                          : x265 3.4+24-g6ed1c24a2:[Windows][GCC 10.2.1][64 bit] 10bit
  • Encoding settings                        : cpuid=533541111039 / frame-threads=5 / numa-pools=32 / wpp / pmode / pme / no-psnr / no-ssim / log-level=2 / input-csp=1 / input-res=1920x1080 / interlace=0 / total-frames=148098 / level-idc=51 / high-tier=1 / uhd-bd=0 / ref=6 / no-allow-non-conformance / repeat-headers / annexb / no-aud / no-hrd / info / hash=0 / no-temporal-layers / no-open-gop / min-keyint=23 / keyint=250 / gop-lookahead=0 / bframes=12 / b-adapt=2 / b-pyramid / bframe-bias=0 / rc-lookahead=60 / lookahead-slices=6 / NTMzNTQ=uuDQuD2mJt9fsCf / scenecut=40 / hist-scenecut=0 / radl=0 / no-splice / no-intra-refresh / ctu=32 / min-cu-size=8 / no-rect / no-amp / max-tu-size=32 / tu-inter-depth=4 / tu-intra-depth=4 / limit-tu=0 / rdoq-level=0 / dynamic-rd=0.00 / no-ssim-rd / signhide / no-tskip / nr-intra=0 / nr-inter=0 / no-constrained-intra / strong-intra-smoothing / max-merge=3 / limit-refs=1 / no-limit-modes / me=2 / subme=7 / merange=48 / temporal-mvp / no-frame-dup / no-hme / weightp / weightb / no-analyze-src-pics / deblock=0:0 / no-sao / no-sao-non-deblock / rd=4 / selective-sao=0 / early-skip / rskip / no-fast-intra / no-tskip-fast / no-cu-lossless / b-intra / no-splitrd-skip / rdpenalty=1 / psy-rd=2.00 / psy-rdoq=0.00 / no-rd-refine / no-lossless / cbqpoffs=0 / crqpoffs=0 / rc=crf / crf=17.0 / qcomp=0.65 / qpstep=4 / stats-write=0 / stats-read=0 / vbv-maxrate=160000 / vbv-bufsize=160000 / vbv-init=0.9 / crf-max=0.0 / crf-min=0.0 / ipratio=1.40 / pbratio=1.20 / aq-mode=3 / aq-strength=0.90 / cutree / zone-count=0 / no-strict-cbr / qg-size=32 / no-rc-grain / qpmax=69 / qpmin=0 / no-const-vbv / sar=0 / overscan=0 / videoformat=5 / range=0 / colorprim=1 / transfer=1 / colormatrix=1 / chromaloc=0 / display-window=0 / cll=0,0 / min-luma=0 / max-luma=1023 / log2-max-poc-lsb=8 / vui-timing-info / vui-hrd-info / slices=1 / no-opt-qp-pps / no-opt-ref-list-length-pps / no-multi-pass-opt-rps / scenecut-bias=0.05 / hist-threshold=0.03 / no-opt-cu-delta-qp / no-aq-motion / no-hdr10 / no-hdr10-opt / no-dhdr10-opt / no-idr-recovery-sei / analysis-reuse-level=0 / analysis-save-reuse-level=0 / analysis-load-reuse-level=0 / scale-factor=0 / refine-intra=0 / refine-inter=0 / refine-mv=1 / refine-ctu-distortion=0 / no-limit-sao / ctu-info=0 / no-lowpass-dct / refine-analysis-type=0 / copy-pic=1 / max-ausize-factor=1.0 / no-dynamic-refine / no-single-sei / no-hevc-aq / no-svt / no-field / qp-adaptation-range=1.00 / no-scenecut-aware-qpconformance-window-offsets / right=0 / bottom=0 / NTMzNTQ= / decoder-max-rate=0 / no-vbv-live-multi-pass
  • Default                                  : Yes
  • Forced                                   : No
  • Color range                              : Limited
  • Color primaries                          : BT.709
  • Transfer characteristics                 : BT.709
  • Matrix coefficients                      : BT.709
  • Audio #1
  • ID                                       : 2
  • ID in the original source medium         : 4352 (0x1100)
  • Format                                   : MLP FBA
  • Format/Info                              : Meridian Lossless Packing FBA
  • Commercial name                          : Dolby TrueHD
  • Codec ID                                 : A_TRUEHD
  • Duration                                 : 1 h 42 min
  • Bit rate mode                            : Variable
  • Bit rate                                 : 3 672 kb/s
  • Maximum bit rate                         : 5 148 kb/s
  • Channel(s)                               : 6 channels
  • Channel layout                           : L R C LFE Ls Rs
  • Sampling rate                            : 48.0 kHz
  • Frame rate                               : 1 200.000 FPS (40 SPF)
  • Compression mode                         : Lossless
  • Stream size                              : 2.64 GiB (26%)
  • Language                                 : English
  • Default                                  : Yes
  • Forced                                   : No
  • Original source medium                   : Blu-ray
  • Audio #2
  • ID                                       : 3
  • ID in the original source medium         : 4357 (0x1105)
  • Format                                   : AC-3
  • Format/Info                              : Audio Coding 3
  • Commercial name                          : Dolby Digital
  • Codec ID                                 : A_AC3
  • Duration                                 : 1 h 42 min
  • Bit rate mode                            : Constant
  • Bit rate                                 : 448 kb/s
  • Channel(s)                               : 6 channels
  • Channel layout                           : L R C LFE Ls Rs
  • Sampling rate                            : 48.0 kHz
  • Frame rate                               : 31.250 FPS (1536 SPF)
  • Compression mode                         : Lossy
  • Stream size                              : 330 MiB (3%)
  • Language                                 : Chinese
  • Service kind                             : Complete Main
  • Default                                  : No
  • Forced                                   : No
  • Original source medium                   : Blu-ray
  • Audio #3
  • ID                                       : 4
  • ID in the original source medium         : 4358 (0x1106)
  • Format                                   : AC-3
  • Format/Info                              : Audio Coding 3
  • Commercial name                          : Dolby Digital
  • Codec ID                                 : A_AC3
  • Duration                                 : 1 h 42 min
  • Bit rate mode                            : Constant
  • Bit rate                                 : 640 kb/s
  • Channel(s)                               : 5 channels
  • Channel layout                           : L R C Ls Rs
  • Sampling rate                            : 48.0 kHz
  • Frame rate                               : 31.250 FPS (1536 SPF)
  • Compression mode                         : Lossy
  • Stream size                              : 471 MiB (5%)
  • Language                                 : Chinese
  • Service kind                             : Complete Main
  • Default                                  : No
  • Forced                                   : No
  • Original source medium                   : Blu-ray
  • Text #1
  • ID                                       : 5
  • ID in the original source medium         : 4610 (0x1202)
  • Format                                   : PGS
  • Muxing mode                              : zlib
  • Codec ID                                 : S_HDMV/PGS
  • Codec ID/Info                            : Picture based subtitle format used on BDs/HD-DVDs
  • Duration                                 : 1 h 35 min
  • Bit rate                                 : 34.5 kb/s
  • Count of elements                        : 2198
  • Stream size                              : 23.6 MiB (0%)
  • Language                                 : English
  • Default                                  : Yes
  • Forced                                   : No
  • Original source medium                   : Blu-ray
  • Text #2
  • ID                                       : 6
  • ID in the original source medium         : 4618 (0x120A)
  • Format                                   : PGS
  • Muxing mode                              : zlib
  • Codec ID                                 : S_HDMV/PGS
  • Codec ID/Info                            : Picture based subtitle format used on BDs/HD-DVDs
  • Duration                                 : 1 h 35 min
  • Bit rate                                 : 38.6 kb/s
  • Count of elements                        : 2524
  • Stream size                              : 26.4 MiB (0%)
  • Language                                 : English
  • Default                                  : No
  • Forced                                   : No
  • Original source medium                   : Blu-ray
  • Text #3
  • ID                                       : 7
  • ID in the original source medium         : 4619 (0x120B)
  • Format                                   : PGS
  • Muxing mode                              : zlib
  • Codec ID                                 : S_HDMV/PGS
  • Codec ID/Info                            : Picture based subtitle format used on BDs/HD-DVDs
  • Duration                                 : 1 h 42 min
  • Bit rate                                 : 131 kb/s
  • Count of elements                        : 7442
  • Stream size                              : 96.4 MiB (1%)
  • Language                                 : Chinese
  • Default                                  : No
  • Forced                                   : No
  • Original source medium                   : Blu-ray
  • Text #4
  • ID                                       : 8
  • ID in the original source medium         : 4620 (0x120C)
  • Format                                   : PGS
  • Muxing mode                              : zlib
  • Codec ID                                 : S_HDMV/PGS
  • Codec ID/Info                            : Picture based subtitle format used on BDs/HD-DVDs
  • Duration                                 : 1 h 42 min
  • Bit rate                                 : 131 kb/s
  • Count of elements                        : 7442
  • Stream size                              : 96.4 MiB (1%)
  • Language                                 : Chinese
  • Default                                  : No
  • Forced                                   : No
  • Original source medium                   : Blu-ray
  • Text #5
  • ID                                       : 9
  • ID in the original source medium         : 4621 (0x120D)
  • Format                                   : PGS
  • Muxing mode                              : zlib
  • Codec ID                                 : S_HDMV/PGS
  • Codec ID/Info                            : Picture based subtitle format used on BDs/HD-DVDs
  • Duration                                 : 1 h 42 min
  • Bit rate                                 : 128 kb/s
  • Count of elements                        : 7642
  • Stream size                              : 93.8 MiB (1%)
  • Language                                 : Chinese
  • Default                                  : No
  • Forced                                   : No
  • Original source medium                   : Blu-ray
  • Text #6
  • ID                                       : 10
  • ID in the original source medium         : 4622 (0x120E)
  • Format                                   : PGS
  • Muxing mode                              : zlib
  • Codec ID                                 : S_HDMV/PGS
  • Codec ID/Info                            : Picture based subtitle format used on BDs/HD-DVDs
  • Duration                                 : 1 h 42 min
  • Bit rate                                 : 129 kb/s
  • Count of elements                        : 7640
  • Stream size                              : 95.1 MiB (1%)
  • Language                                 : Chinese
  • Default                                  : No
  • Forced                                   : No
  • Original source medium                   : Blu-ray
  • Text #7
  • ID                                       : 11
  • ID in the original source medium         : 4623 (0x120F)
  • Format                                   : PGS
  • Muxing mode                              : zlib
  • Codec ID                                 : S_HDMV/PGS
  • Codec ID/Info                            : Picture based subtitle format used on BDs/HD-DVDs
  • Duration                                 : 1 h 42 min
  • Bit rate                                 : 177 kb/s
  • Count of elements                        : 7223
  • Stream size                              : 130 MiB (1%)
  • Language                                 : Chinese
  • Default                                  : No
  • Forced                                   : No
  • Original source medium                   : Blu-ray
  • Text #8
  • ID                                       : 12
  • ID in the original source medium         : 4624 (0x1210)
  • Format                                   : PGS
  • Muxing mode                              : zlib
  • Codec ID                                 : S_HDMV/PGS
  • Codec ID/Info                            : Picture based subtitle format used on BDs/HD-DVDs
  • Duration                                 : 1 h 42 min
  • Bit rate                                 : 178 kb/s
  • Count of elements                        : 7223
  • Stream size                              : 130 MiB (1%)
  • Language                                 : Chinese
  • Default                                  : No
  • Forced                                   : No
  • Original source medium                   : Blu-ray
  • Menu
  • 00:00:00.000                             : en:Chapter 01
  • 00:02:42.537                             : en:Chapter 02
  • 00:06:49.283                             : en:Chapter 03
  • 00:09:06.712                             : en:Chapter 04
  • 00:09:43.457                             : en:Chapter 05
  • 00:11:31.357                             : en:Chapter 06
  • 00:17:14.700                             : en:Chapter 07
  • 00:29:29.225                             : en:Chapter 08
  • 00:36:58.216                             : en:Chapter 09
  • 00:42:33.926                             : en:Chapter 10
  • 00:45:41.113                             : en:Chapter 11
  • 00:47:43.819                             : en:Chapter 12
  • 00:51:12.444                             : en:Chapter 13
  • 00:52:56.631                             : en:Chapter 14
  • 00:55:23.028                             : en:Chapter 15
  • 01:01:08.039                             : en:Chapter 16
  • 01:09:57.985                             : en:Chapter 17
  • 01:13:20.896                             : en:Chapter 18
  • 01:21:01.356                             : en:Chapter 19
  • 01:23:22.747                             : en:Chapter 20
  • 01:27:44.092                             : en:Chapter 21
  • 01:31:51.214                             : en:Chapter 22
  • 01:34:49.308                             : en:Chapter 23
  • 01:36:00.755                             : en:Chapter 24


The.Truman.Show.1998.BluRay.1080p.TrueHD.5.1.x265.10bit-Xiaomi.torrent

32.43 KB, 下载次数: 8, 下载积分: 金币 -1

温馨提示

记得善用社区搜索功能,那里可能会有你想要的资源;论坛站内搜索

如果你有什么需要的资源可以去悬赏问答发帖,求助社区的网友,我们会在第一时间给你回复哦;资源求档

对于本社区如果你有任何好建议或者相关合作可以随时与我们联系,或者在反馈建议发帖,您的支持,是我们发展的最大动力;投诉建议

精彩评论34

young270c 发表于 2022-11-22 06:01 | 显示全部楼层
谢谢楼主分享

温馨提示

记得善用社区搜索功能,那里可能会有你想要的资源;论坛站内搜索

如果你有什么需要的资源可以去悬赏问答发帖,求助社区的网友,我们会在第一时间给你回复哦;资源求档

对于本社区如果你有任何好建议或者相关合作可以随时与我们联系,或者在反馈建议发帖,您的支持,是我们发展的最大动力;投诉建议

話柠 发表于 2022-11-24 07:27 来自手机 | 显示全部楼层
多谢楼主分享

温馨提示

记得善用社区搜索功能,那里可能会有你想要的资源;论坛站内搜索

如果你有什么需要的资源可以去悬赏问答发帖,求助社区的网友,我们会在第一时间给你回复哦;资源求档

对于本社区如果你有任何好建议或者相关合作可以随时与我们联系,或者在反馈建议发帖,您的支持,是我们发展的最大动力;投诉建议

mtvcomg 发表于 2022-12-1 19:17 来自手机 | 显示全部楼层
感谢分享已收藏

温馨提示

记得善用社区搜索功能,那里可能会有你想要的资源;论坛站内搜索

如果你有什么需要的资源可以去悬赏问答发帖,求助社区的网友,我们会在第一时间给你回复哦;资源求档

对于本社区如果你有任何好建议或者相关合作可以随时与我们联系,或者在反馈建议发帖,您的支持,是我们发展的最大动力;投诉建议

dalirockl 发表于 2022-12-2 20:51 | 显示全部楼层
谢谢楼主大人分享

温馨提示

记得善用社区搜索功能,那里可能会有你想要的资源;论坛站内搜索

如果你有什么需要的资源可以去悬赏问答发帖,求助社区的网友,我们会在第一时间给你回复哦;资源求档

对于本社区如果你有任何好建议或者相关合作可以随时与我们联系,或者在反馈建议发帖,您的支持,是我们发展的最大动力;投诉建议

271352718 发表于 2022-12-7 12:30 | 显示全部楼层
谢谢楼主分享

温馨提示

记得善用社区搜索功能,那里可能会有你想要的资源;论坛站内搜索

如果你有什么需要的资源可以去悬赏问答发帖,求助社区的网友,我们会在第一时间给你回复哦;资源求档

对于本社区如果你有任何好建议或者相关合作可以随时与我们联系,或者在反馈建议发帖,您的支持,是我们发展的最大动力;投诉建议

271352718 发表于 2022-12-7 12:31 | 显示全部楼层
谢谢楼主分享

温馨提示

记得善用社区搜索功能,那里可能会有你想要的资源;论坛站内搜索

如果你有什么需要的资源可以去悬赏问答发帖,求助社区的网友,我们会在第一时间给你回复哦;资源求档

对于本社区如果你有任何好建议或者相关合作可以随时与我们联系,或者在反馈建议发帖,您的支持,是我们发展的最大动力;投诉建议

限量版女汉子i 发表于 2022-12-7 17:39 | 显示全部楼层
感恩分享多谢

温馨提示

记得善用社区搜索功能,那里可能会有你想要的资源;论坛站内搜索

如果你有什么需要的资源可以去悬赏问答发帖,求助社区的网友,我们会在第一时间给你回复哦;资源求档

对于本社区如果你有任何好建议或者相关合作可以随时与我们联系,或者在反馈建议发帖,您的支持,是我们发展的最大动力;投诉建议

zml0106g 发表于 2022-12-17 11:22 | 显示全部楼层
感恩分享多谢

温馨提示

记得善用社区搜索功能,那里可能会有你想要的资源;论坛站内搜索

如果你有什么需要的资源可以去悬赏问答发帖,求助社区的网友,我们会在第一时间给你回复哦;资源求档

对于本社区如果你有任何好建议或者相关合作可以随时与我们联系,或者在反馈建议发帖,您的支持,是我们发展的最大动力;投诉建议

hdchy 发表于 2022-12-17 11:50 | 显示全部楼层
谢谢楼主分享
每天一签到,证明我来过8资源分享论坛...
yutian 发表于 2022-12-17 12:34 | 显示全部楼层
谢楼主分享
该会员没有填写今日想说内容.

本版积分规则
提醒:禁止复制他人回复等『恶意灌水』行为,违者重罚!

发表新帖
阅读排行更多+
快速回复 收藏帖子 返回列表
即刻加入,享受更多精彩。 会员登录[Login] 注册[Register]
资源分享,资源共享。
官方Facebok
Facebook.com/8ziyuan
意见反馈:[email protected]

关注我们的官方Twitter

Powered by Discuz! © 2016-2024 8ziyuan.com Inc. Protected by CloudFlare | 小黑屋 | 8资源分享论坛 | RSS订阅 | 手机版 | 联系我们