请选择 进入手机版 | 继续访问电脑版

[喜剧片] 奇蹟 Mr.Canton.and.Lady.Rose.1989.CHINESE.1080p.BluRay.x264.DTS-FGT 11.55GB

[复制链接]
唐章小小官方 发表于 2019-12-19 16:47 | 显示全部楼层 |阅读模式 打印 上一主题 下一主题


◎译  名 奇迹 / Black Dragon / Miracles / Mr. Canton and Lady Rose / The Canton Godfather / 替身的传说
◎片  名 奇蹟
◎年  代 1989
◎产  地 中国香港
◎类  别 剧情 / 喜剧 / 动作 / 犯罪
◎语  言 粤语 / 英语
◎上映日期 1989-06-15(中国香港)
◎IMDb评分 7.1/10 from 4034 users
◎IMDb链接 http://www.imdb.com/title/tt0098019
◎豆瓣评分 7.8/10 from 18003 users
◎豆瓣链接 https://movie.douban.com/subject/1293941/
◎片  长 139分钟(香港)
◎导  演 成龙 Jackie Chan
◎编  剧 成龙 Jackie Chan / 邓景生 Edward Tang
◎主  演 成龙 Jackie Chan
      梅艳芳 Anita Mui
      归亚蕾 Ya-lei Kuei
      柯俊雄 Chun Hsiung Ko
      午马 Wu Ma
      董骠 Bill Tung


◎标  签 成龙 | 香港 | 动作 | 喜剧 | 梅艳芳 | 香港电影 | 1989 | 电影

◎简  介

  青年郭振华(成龙 饰)赴港谋求发展,路见不平之下卷入两派黑帮争斗,却阴差阳错做了帮派大哥,郭振华反思此一段奇遇,发觉是街边卖花的玫瑰夫人(归亚蕾 饰)将好运带给了自己,自此谈判、出门前总要购买玫瑰夫人的玫瑰以求心安。郭振华将帮派所属丽池饭店改为夜总会经营,饭店前任老板之女杨露明(梅艳芳 饰)出于还债在夜总会表演结果大红大紫,郭杨二人更发展出了一段恋情。觊觎夜总会生意多时的福建帮频频向郭振华发难,郭一如既往向玫瑰夫人求运,意外发现玫瑰夫人正身陷更大的麻烦,原来她为使外地的女儿安心读书编造了自己堂皇的身份,而眼下终于面临戳穿,郭出于感激帮助玫瑰夫人圆谎,由此引发了连环笑料……
  本片根据Frank Capra的作品《一日贵妇》改编,大量香港明星在本片中客串演出。

◎获奖情况

  第26届台北金马影展(1989)
  金马奖 最佳男主角(提名) 成龙
  金马奖 最佳摄影(提名) 黄岳泰
  金马奖 最佳美术设计(提名) 马磐超
  金马奖 最佳造型设计(提名) 马磐超
  金马奖 最佳剪辑(提名) 张耀宗

  第9届香港电影金像奖(1990)
  最佳男主角(提名) 成龙
  最佳剪接(提名) 张耀宗
  最佳美术指导(提名) 马磐超
  最佳动作设计
Video
ID : 1
Format : AVC
Format/Info : Advanced Video Codec
Format profile : [email protected]
Format settings : CABAC / 4 Ref Frames
Format settings, CABAC : Yes
Format settings, Reference frames : 4 frames
Codec ID : V_MPEG4/ISO/AVC
Duration : 2 h 7 min
Bit rate : 11.5 Mb/s
Width : 1 920 pixels
Height : 808 pixels
Display aspect ratio : 2.40:1
Frame rate mode : Constant
Frame rate : 29.970 (30000/1001) FPS
Color space : YUV
Chroma subsampling : 4:2:0
Bit depth : 8 bits
Scan type : Progressive
Bits/(Pixel*Frame) : 0.247
Stream size : 10.2 GiB (88%)
Title : Mr.Canton.and.Lady.Rose.1989.CHINESE.1080p.BluRay.x264.DTS-FGT
Writing library : x264 core 148 r2748 97eaef2
Encoding settings : cabac=1 / ref=4 / deblock=1:-2:-2 / analyse=0x3:0x113 / me=umh / subme=9 / psy=1 / psy_rd=1.00:0.15 / mixed_ref=1 / me_range=16 / chroma_me=1 / trellis=2 / 8x8dct=1 / cqm=0 / deadzone=21,11 / fast_pskip=1 / chroma_qp_offset=-3 / threads=24 / lookahead_threads=3 / sliced_threads=0 / nr=0 / decimate=1 / interlaced=0 / bluray_compat=0 / constrained_intra=0 / bframes=3 / b_pyramid=2 / b_adapt=1 / b_bias=0 / direct=3 / weightb=1 / open_gop=0 / weightp=2 / keyint=250 / keyint_min=25 / scenecut=40 / intra_refresh=0 / rc_lookahead=50 / rc=2pass / mbtree=1 / bitrate=11500 / ratetol=1.0 / qcomp=0.60 / qpmin=0 / qpmax=69 / qpstep=4 / cplxblur=20.0 / qblur=0.5 / vbv_maxrate=31250 / vbv_bufsize=31250 / nal_hrd=none / filler=0 / ip_ratio=1.40 / aq=1:1.00
Language : English
Default : Yes
Forced : No

Audio
ID : 2
Format : DTS
Format/Info : Digital Theater Systems
Codec ID : A_DTS
Duration : 2 h 7 min
Bit rate mode : Constant
Bit rate : 1 509 kb/s
Channel(s) : 6 channels
Channel layout : C L R Ls Rs LFE
Sampling rate : 48.0 kHz
Frame rate : 93.750 FPS (512 SPF)
Bit depth : 16 bits
Compression mode : Lossy
Stream size : 1.34 GiB (12%)
Title : Mr.Canton.and.Lady.Rose.1989.CHINESE.1080p.BluRay.x264.DTS-FGT
Language : Chinese
Default : Yes
Forced : No

Text
ID : 3
Format : UTF-8
Codec ID : S_TEXT/UTF8
Codec ID/Info : UTF-8 Plain Text
Duration : 2 h 3 min
Bit rate : 61 b/s
Count of elements : 1682
Stream size : 55.6 KiB (0%)
Language : English
Default : Yes
Forced : No

Menu
00:00:00.000 : en:Chapter 01
00:03:07.487 : en:Chapter 02
00:09:18.324 : en:Chapter 03
00:15:41.440 : en:Chapter 04
00:23:11.590 : en:Chapter 05
00:29:10.448 : en:Chapter 06
00:36:11.335 : en:Chapter 07
00:43:09.520 : en:Chapter 08
00:51:19.443 : en:Chapter 09
00:56:04.327 : en:Chapter 10
01:03:24.734 : en:Chapter 11
01:07:09.191 : en:Chapter 12
01:15:35.664 : en:Chapter 13
01:22:13.595 : en:Chapter 14
01:28:52.460 : en:Chapter 15
01:36:42.630 : en:Chapter 16
01:44:14.181 : en:Chapter 17
01:49:58.892 : en:Chapter 18
01:55:10.803 : en:Chapter 19
02:03:37.743 : en:Chapter 20
02:06:58.177 : en:Chapter 21
02:07:05.384 : en:Chapter 22


Mr.Canton.and.Lady.Rose.1989.CHINESE.1080p.BluRay.x264.DTS-FGT.torrent

58.32 KB, 下载次数: 17


【扫码访问手机版】

温馨提示

记得善用社区搜索功能,那里可能会有你想要的资源;论坛站内搜索

如果你有什么需要的资源可以去资源求档发帖,求助社区的网友,我们会在第一时间给你回复哦;资源求档

对于本社区如果你有任何好建议或者相关合作可以随时与我们联系,或者在投诉建议发帖,您的支持,是我们发展的最大动力;投诉建议

精彩评论8

苝海莈冇猫 发表于 2019-12-19 16:51 来自手机 | 显示全部楼层
十分感谢

温馨提示

记得善用社区搜索功能,那里可能会有你想要的资源;论坛站内搜索

如果你有什么需要的资源可以去资源求档发帖,求助社区的网友,我们会在第一时间给你回复哦;资源求档

对于本社区如果你有任何好建议或者相关合作可以随时与我们联系,或者在投诉建议发帖,您的支持,是我们发展的最大动力;投诉建议

宋凝 发表于 2019-12-22 15:23 来自手机 | 显示全部楼层
多谢分享

温馨提示

记得善用社区搜索功能,那里可能会有你想要的资源;论坛站内搜索

如果你有什么需要的资源可以去资源求档发帖,求助社区的网友,我们会在第一时间给你回复哦;资源求档

对于本社区如果你有任何好建议或者相关合作可以随时与我们联系,或者在投诉建议发帖,您的支持,是我们发展的最大动力;投诉建议

梦想永遠在騷動 发表于 2019-12-23 18:16 来自手机 | 显示全部楼层
感谢分享啊

温馨提示

记得善用社区搜索功能,那里可能会有你想要的资源;论坛站内搜索

如果你有什么需要的资源可以去资源求档发帖,求助社区的网友,我们会在第一时间给你回复哦;资源求档

对于本社区如果你有任何好建议或者相关合作可以随时与我们联系,或者在投诉建议发帖,您的支持,是我们发展的最大动力;投诉建议

偏执的温柔 发表于 2019-12-27 12:36 | 显示全部楼层
多谢分享

温馨提示

记得善用社区搜索功能,那里可能会有你想要的资源;论坛站内搜索

如果你有什么需要的资源可以去资源求档发帖,求助社区的网友,我们会在第一时间给你回复哦;资源求档

对于本社区如果你有任何好建议或者相关合作可以随时与我们联系,或者在投诉建议发帖,您的支持,是我们发展的最大动力;投诉建议

娇滴滴的女汉子@ 发表于 2019-12-29 00:34 来自手机 | 显示全部楼层
太赞了!!!LZ!!!!

温馨提示

记得善用社区搜索功能,那里可能会有你想要的资源;论坛站内搜索

如果你有什么需要的资源可以去资源求档发帖,求助社区的网友,我们会在第一时间给你回复哦;资源求档

对于本社区如果你有任何好建议或者相关合作可以随时与我们联系,或者在投诉建议发帖,您的支持,是我们发展的最大动力;投诉建议

Penniless 发表于 2019-12-30 01:32 来自手机 | 显示全部楼层
感谢你的分享,论坛有你更加的精彩

温馨提示

记得善用社区搜索功能,那里可能会有你想要的资源;论坛站内搜索

如果你有什么需要的资源可以去资源求档发帖,求助社区的网友,我们会在第一时间给你回复哦;资源求档

对于本社区如果你有任何好建议或者相关合作可以随时与我们联系,或者在投诉建议发帖,您的支持,是我们发展的最大动力;投诉建议

菇凉ˉAmor 发表于 2019-12-31 23:42 来自手机 | 显示全部楼层
666,这个可以支持!

温馨提示

记得善用社区搜索功能,那里可能会有你想要的资源;论坛站内搜索

如果你有什么需要的资源可以去资源求档发帖,求助社区的网友,我们会在第一时间给你回复哦;资源求档

对于本社区如果你有任何好建议或者相关合作可以随时与我们联系,或者在投诉建议发帖,您的支持,是我们发展的最大动力;投诉建议

話柠 发表于 2020-1-8 16:16 | 显示全部楼层
找了好久终于找到了

温馨提示

记得善用社区搜索功能,那里可能会有你想要的资源;论坛站内搜索

如果你有什么需要的资源可以去资源求档发帖,求助社区的网友,我们会在第一时间给你回复哦;资源求档

对于本社区如果你有任何好建议或者相关合作可以随时与我们联系,或者在投诉建议发帖,您的支持,是我们发展的最大动力;投诉建议

您需要登录后才可以回帖 登录 | 注册会员[Register]  

本版积分规则

发布主题
阅读排行更多+
快速回复 收藏帖子 返回列表
注册会员,尊享海量免费资源。 会员登录[Login] 注册[Register]
资源分享,资源共享。
官方Twitter
Twitter.com/8ziyuan
意见反馈:[email protected]

关注我们的官方Twitter

Powered by Discuz! © 2016-2019 8ziyuan.com Inc. Protected by CloudFlare | 小黑屋 | 8资源分享论坛 | RSS订阅 | 手机版 | 联系我们