请选择 进入手机版 | 继续访问电脑版

[内地剧] [三体 真人剧版第一部][全30集][国语中字][WEB/MP4][4K][Vampire][...

  [复制链接]
新泽西社区官方认证 发表于 2023-5-29 23:34 | 显示全部楼层 |阅读模式 打印 上一主题 下一主题
355ea58ec1798882c46e9a7855eef2b6.jpg

◎译  名 Three-Body / 三体(剧版)
◎片  名 三体
◎年  代 2023
◎产  地 中国大陆
◎类  别 剧情 / 科幻
◎语  言 汉语普通话,英语
◎上映日期 2023-01-15(中国大陆)
◎IMDb评分 7.9/10 from 1201 users
◎豆瓣评分 8.3/10 from 241062 users
◎集  数 30
◎片  长 45分钟
◎导  演 杨磊 Lei Yang
◎编  剧 田良良 Liangliang Tian / 刘慈欣 Cixin Liu / 陈晨 Chen Chen / 孟扬 Asana / 胡晓曦 Xiaoxi Hu / 钱钰 Yu Qian
◎主  演 张鲁一 Luyi Zhang
       于和伟 Hewei Yu
       陈瑾 Jin Chen
       王子文 Ava Wang
       林永健 Yongjian Lin
       李小冉 Xiaoran Li
       王传君 Chuanjun Wang
       张帆 Fan Zhang
       白客 White. K
       涂松岩 Songyan Tu
       刘敏 Min Liu
       寇振海 Zhenhai Kou
       杨蓉 Rong Yang
       孔琳 Lin Kong
       张峻宁 Junning Zhang
       柯南·何裴 Kenan Heppe
       李则慧 Zehui Li
       赵健 Jian Zhao
       何杜娟 Dujuan He
       孔连顺 Lianshun Kong
       韩青 Qing Han
       黎明明 Mingming Li
       张铭恩 Ming'en Zhang
       朱戬 Jian Zhu
       郭靖宇 Jingyu Guo
       江南 Zhi Yang
       蔡佳 Jia Cai
       胡杰 Jie Hu
       于洋 Yang Yu
       侯鸿亮 Hongliang Hou
       梁振华 Zhenhua Liang
       费振翔 Zhenxiang Fei
       高亚麟 Yalin Gao
       季晨 Chen Ji
       马东 Dong Ma
       唐家三少 Wei Zhang
       白一骢 Yicong Bai
       杨磊 Lei Yang
       贾士凯 Shikai Jia
       王薇 Wei Wang
       王羽铮 Yuzheng Wang
       于歆玥 Xinyue Yu
       潘晓莉 Xiaoli Pan
       蔡盈盈 YingYing Cai  
       杨欣恬 Xintian Yang  
       刘灯军 Dengjun Liu  
       顾天逸 Tianyi Gu  
       吕克·本扎 Luc Bendza  
       伊斯玛伊扎德 Ismayilzada  
       本 Ben  
       刘玮婷 Weiting Liu  
       袁宁璐 Ninglu Yuan  
       郗峥嵘 Zhengrong Chi
       张芷菡 Zhihan Zhang  
       王宗元 Zongyuan Wang  
       蔡尚恒 Shangheng Cai  
       别利亚科夫·安德烈 Beliakov Andrei  
       王健 Jian Wang  
       张弓 Gong Zhang
       马书良 Shuliang Ma
       迈克尔·寇特斯 Michael Koltes

◎简  介

  2007年,地球基础科学出现了异常的扰动,一时间科学界风雨飘飘,人心惶惶。离奇自杀的科学家,近乎神迹的倒计时,行事隐秘的科学边,神秘莫测的《三体》游戏……纳米科学家汪淼被警官史强带到联合作战中心,并潜入名为“科学边界”的组织协助调查。迷雾之中,汪淼接触到一个名为ETO的 组织,发现其幕后统帅竟是自杀身亡的科学家杨冬的母亲——叶文洁。随着ETO与作战中心你来我往的不断博弈,汪淼和史强逐渐确定《三体》游戏中的世界真实存在。而所有事件的源起,是两个文明为了生存空间,孤注一掷的生死相逐。在联合作战中心及科学家们的共同努力下,汪淼、史强等人坚定信念、重燃希望,带领大家继续准备着在今后与即将入侵的三体人展开殊死斗争。

General

Complete name               : 三体(真人剧版).Three.Body.S01.2023.EP01.4K.X265.AAC-Vampire.mp4
Format                      : MPEG-4
Format profile              : Base Media
Codec ID                    : isom (isom/iso2/mp41)
File size                   : 637 MiB
Duration                    : 43 min 42 s
Overall bit rate            : 2 039 kb/s
Movie name                  : 三体.Three.Body(真人剧版)
Album                       : 国产电视剧系列
Performer                   : Vampire制作分享作品
Genre                       : 中国大陆
Recorded date               : 2023
Cover                       : Yes
Comment                     : 警告:严禁将任何作品用于商业性质活动,所有制作作品仅限于测试宽带之用,请于下载后24小时内删除。本人不承担任何法律后果!喜欢本作品请购买正版!!!

Video
ID                          : 1
Format                      : HEVC
Format/Info                 : High Efficiency Video Coding
Format profile              : Main@L5@Main
Codec ID                    : hev1
Codec ID/Info               : High Efficiency Video Coding
Duration                    : 43 min 42 s
Bit rate                    : 1 907 kb/s
Width                       : 3 840 pixels
Height                      : 1 634 pixels
Display aspect ratio        : 2.35:1
Frame rate mode             : Variable
Frame rate                  : 25.000 FPS
Minimum frame rate          : 24.993 FPS
Maximum frame rate          : 25.007 FPS
Color space                 : YUV
Chroma subsampling          : 4:2:0
Bit depth                   : 8 bits
Bits/(Pixel*Frame)          : 0.012
Stream size                 : 596 MiB (94%)
Codec configuration box     : hvcC

Audio
ID                          : 2
Format                      : AAC LC
Format/Info                 : Advanced Audio Codec Low Complexity
Codec ID                    : mp4a-40-2
Duration                    : 43 min 42 s
Bit rate mode               : Constant
Bit rate                    : 125 kb/s
Channel(s)                  : 2 channels
Channel layout              : L R
Sampling rate               : 48.0 kHz
Frame rate                  : 46.875 FPS (1024 SPF)
Compression mode            : Lossy
Stream size                 : 39.2 MiB (6%)
Default                     : Yes
3fe149f071dcd5dea76c5782ee93b89e.jpg d05e123e15790099e64dbf439041232f.jpg

种子请使用专业BT下载工具:
UT,Bitcomet,qBittorrent,Xdown开启上传后再下载!!!
使用迅雷或网盘离线可能会没速度!!!
视频的网盘资源均修改了视频后缀(如mp4或mkv)修改为.PDF,用以混淆官方视听!
并且加密了文件名,设置了独有的解压密码,请使用WinRAR解压,使用好压或其他可能会出错!!
网盘版所有压缩包下载完毕后解压第一个包即可全部解压(有些可能有解压密码),解压后自行将后缀名“PDF”修改为“mp4或者mkv”后即可正常播放!!!

已完结剧集不再分集打包上传,整体打包后分卷,无法单独下载某一集,需要全部下载后一起解压,敬请知晓!!!
请各位下载的坛友先保存至自己的网盘,然后再进行下载!
不要直接在线观看或者解压,否则会很快被网盘官方发觉并和谐!!
网盘版资源一旦和谐,皆不会免费补档,请谨慎举报资源!!!

请下载完成的朋友自觉做种一段时间,小水管出种不易,且下且珍惜,谢谢!!!

提取密码:GXFC
解压密码:见网盘内部
PS:本剧的高码率和杜比视界版太大了,懒得打包和上传了,本版本仅供尝鲜,需要那些收藏版的请等待转帖大神们的BT版本。

随便发点什么 心情不错。晚安

精彩评论30

偏执的温柔 发表于 2023-5-30 04:35 | 显示全部楼层
很好看所以收藏起来了

温馨提示

记得善用社区搜索功能,那里可能会有你想要的资源;论坛站内搜索

如果你有什么需要的资源可以去悬赏问答发帖,求助社区的网友,我们会在第一时间给你回复哦;资源求档

对于本社区如果你有任何好建议或者相关合作可以随时与我们联系,或者在反馈建议发帖,您的支持,是我们发展的最大动力;投诉建议

Krureno 发表于 2023-5-30 04:35 来自手机 | 显示全部楼层
多谢,楼主终于找到了

温馨提示

记得善用社区搜索功能,那里可能会有你想要的资源;论坛站内搜索

如果你有什么需要的资源可以去悬赏问答发帖,求助社区的网友,我们会在第一时间给你回复哦;资源求档

对于本社区如果你有任何好建议或者相关合作可以随时与我们联系,或者在反馈建议发帖,您的支持,是我们发展的最大动力;投诉建议

Zz61031 发表于 2023-5-30 22:06 来自手机 | 显示全部楼层
多谢分享前来收藏

温馨提示

记得善用社区搜索功能,那里可能会有你想要的资源;论坛站内搜索

如果你有什么需要的资源可以去悬赏问答发帖,求助社区的网友,我们会在第一时间给你回复哦;资源求档

对于本社区如果你有任何好建议或者相关合作可以随时与我们联系,或者在反馈建议发帖,您的支持,是我们发展的最大动力;投诉建议

铷裹鰅見妳 发表于 2023-6-14 20:30 来自手机 | 显示全部楼层
好电影所以前来围观

温馨提示

记得善用社区搜索功能,那里可能会有你想要的资源;论坛站内搜索

如果你有什么需要的资源可以去悬赏问答发帖,求助社区的网友,我们会在第一时间给你回复哦;资源求档

对于本社区如果你有任何好建议或者相关合作可以随时与我们联系,或者在反馈建议发帖,您的支持,是我们发展的最大动力;投诉建议

沙漠里的鱼 发表于 2023-6-22 14:53 来自手机 | 显示全部楼层
感恩分享多谢

温馨提示

记得善用社区搜索功能,那里可能会有你想要的资源;论坛站内搜索

如果你有什么需要的资源可以去悬赏问答发帖,求助社区的网友,我们会在第一时间给你回复哦;资源求档

对于本社区如果你有任何好建议或者相关合作可以随时与我们联系,或者在反馈建议发帖,您的支持,是我们发展的最大动力;投诉建议

吃醋心疼i 发表于 2023-6-28 10:04 | 显示全部楼层
感谢分享已经收藏

温馨提示

记得善用社区搜索功能,那里可能会有你想要的资源;论坛站内搜索

如果你有什么需要的资源可以去悬赏问答发帖,求助社区的网友,我们会在第一时间给你回复哦;资源求档

对于本社区如果你有任何好建议或者相关合作可以随时与我们联系,或者在反馈建议发帖,您的支持,是我们发展的最大动力;投诉建议

zhoufang090203p 发表于 2023-7-1 19:39 | 显示全部楼层
感谢分享已经收藏

温馨提示

记得善用社区搜索功能,那里可能会有你想要的资源;论坛站内搜索

如果你有什么需要的资源可以去悬赏问答发帖,求助社区的网友,我们会在第一时间给你回复哦;资源求档

对于本社区如果你有任何好建议或者相关合作可以随时与我们联系,或者在反馈建议发帖,您的支持,是我们发展的最大动力;投诉建议

残花可以败柳 发表于 2023-7-3 18:41 来自手机 | 显示全部楼层
多谢,楼主终于找到了

温馨提示

记得善用社区搜索功能,那里可能会有你想要的资源;论坛站内搜索

如果你有什么需要的资源可以去悬赏问答发帖,求助社区的网友,我们会在第一时间给你回复哦;资源求档

对于本社区如果你有任何好建议或者相关合作可以随时与我们联系,或者在反馈建议发帖,您的支持,是我们发展的最大动力;投诉建议

活著就是折騰 发表于 2023-7-9 15:09 | 显示全部楼层
多谢分享前来收藏

温馨提示

记得善用社区搜索功能,那里可能会有你想要的资源;论坛站内搜索

如果你有什么需要的资源可以去悬赏问答发帖,求助社区的网友,我们会在第一时间给你回复哦;资源求档

对于本社区如果你有任何好建议或者相关合作可以随时与我们联系,或者在反馈建议发帖,您的支持,是我们发展的最大动力;投诉建议

梦回千年 发表于 2023-7-10 13:19 | 显示全部楼层
谢谢楼主分享

温馨提示

记得善用社区搜索功能,那里可能会有你想要的资源;论坛站内搜索

如果你有什么需要的资源可以去悬赏问答发帖,求助社区的网友,我们会在第一时间给你回复哦;资源求档

对于本社区如果你有任何好建议或者相关合作可以随时与我们联系,或者在反馈建议发帖,您的支持,是我们发展的最大动力;投诉建议

本版积分规则
提醒:禁止复制他人回复等『恶意灌水』行为,违者重罚!

发表新帖
阅读排行更多+
快速回复 收藏帖子 返回列表
即刻加入,享受更多精彩。 会员登录[Login] 注册[Register]
资源分享,资源共享。
官方Facebok
Facebook.com/8ziyuan
意见反馈:[email protected]

关注我们的官方Twitter

Powered by Discuz! © 2016-2024 8ziyuan.com Inc. Protected by CloudFlare | 小黑屋 | 8资源分享论坛 | RSS订阅 | 手机版 | 联系我们