请选择 进入手机版 | 继续访问电脑版

[剧情片] 如父如子 Like.Father.Like.Son.2013.JAPANESE.1080p.BluRay.x264.DTS-HDH 14....

  [复制链接]
唐章小小 发表于 2019-7-29 13:44 | 显示全部楼层 |阅读模式 打印 上一主题 下一主题
5d3dfbaa0ae36.png

◎译  名 如父如子 / Like Father, Like Son / Soshite Chichi Ni Naru / Tel Père, Tel Fils / 我的意外爸爸(台) / 有其父必有其子 / 然后变成爸爸 / 谁调换了我的父亲(港)
◎片  名 そして父になる
◎年  代 2013
◎产  地 日本
◎类  别 剧情 / 家庭
◎语  言 日语
◎上映日期 2013-09-28(日本)
◎IMDb评分 7.8/10 from 18398 users
◎IMDb链接 http://www.imdb.com/title/tt2331143
◎豆瓣评分 8.6/10 from 85429 users
◎豆瓣链接 https://movie.douban.com/subject/10571509/
◎片  长 120分钟
◎导  演 是枝裕和 Hirokazu Koreeda
◎编  剧 是枝裕和 Hirokazu Koreeda
◎主  演 福山雅治 Masaharu Fukuyama
      尾野真千子 Machiko Ono
      真木阳子 Yoko Maki
      中川雅也 Lily Franky
      风吹淳 Jun Fubuki
      国村隼 Jun Kunimura
      树木希林 Kirin Kiki
      夏八木勋 Isao Natsuyagi
      井浦新 Arata
      二宫庆多 Keita Ninomiya
      黄升炫 Shogen Hwang


◎标  签 日本 | 是枝裕和 | 日本电影 | 福山雅治 | 亲情 | 家庭 | 剧情 | 2013

◎简  介

  普通上班族野野宫良多(福山雅治 饰)和妻子野野宫绿(尾野真千子 饰)结婚多年,感情十分要好,两人共同养育着聪明乖巧的儿子野野宫庆多(二宫庆多 饰),生活宁静中处处透露着幸福。令本以为平静生活将一直持续的三人没有想到的是,一通来自庆多出生的医院的电话将这个小家庭卷入了风口 浪尖之上。
原来,庆多并非良多和绿的儿子,而是由斋木雄大(利利·弗兰克 饰)和尤加利(真木阳子 饰)的爱情结晶。是朝夕相处的感情珍贵,还是血脉相连的羁绊重要?面对多年前一个小小误会所酿成的后果,良多和绿不知该何去何从。而对于雄大、尤加利和两人亦非亲生的孩子斋木琉晴(黄升炫 饰)来说,他们亦站在了人生的十字路口之前。

◎获奖情况

  第66届戛纳电影节(2013)
  主竞赛单元 金棕榈奖(提名) 是枝裕和
  主竞赛单元 评审团奖
  天主教人道精神奖-特别提及 是枝裕和

  第37届日本电影学院奖(2014)
  最佳影片(提名)
  最佳导演(提名) 是枝裕和
  最佳编剧(提名) 是枝裕和
  最佳男主角(提名) 福山雅治
  最佳女主角(提名) 尾野真千子
  最佳男配角 中川雅也
  最佳女配角 真木阳子
  最佳配乐(提名) 森敬 / 松本淳一 / 松原毅
  最佳摄影(提名) 泷本干也
  最佳照明(提名) 藤井稔恭
  最佳录音(提名) 弦巻裕
  最佳剪辑(提名) 是枝裕和

  第8届亚洲电影大奖(2014)
  最佳导演(提名) 是枝裕和
  最佳男主角(提名) 福山雅治
  最佳新演员(提名) 二宫庆多

  第57届伦敦电影节(2013)
  最佳影片(提名) 是枝裕和

  第17届美国在线影评人协会奖(2013)
  最佳非北美上映影片

  第1届豆瓣电影年度榜单(2014)
  评分最高的日本电影(提名)

  第5届豆瓣电影鑫像奖(2015)
  鑫豆单元 最佳日本电影



Video
ID : 1
Format : AVC
Format/Info : Advanced Video Codec
Format profile : [email protected]
Format settings : CABAC / 4 Ref Frames
Format settings, CABAC : Yes
Format settings, Reference frames : 4 frames
Codec ID : V_MPEG4/ISO/AVC
Duration : 2 h 6 min
Bit rate : 15.4 Mb/s
Width : 1 920 pixels
Height : 1 040 pixels
Display aspect ratio : 1.85:1
Frame rate mode : Constant
Frame rate : 23.976 (24000/1001) FPS
Color space : YUV
Chroma subsampling : 4:2:0
Bit depth : 8 bits
Scan type : Progressive
Bits/(Pixel*Frame) : 0.322
Stream size : 13.6 GiB (91%)
Writing library : x264 core 142 r2431+42 c69a006 tMod [[email protected]:2:0 X86_64]
Encoding settings : cabac=1 / ref=4 / deblock=1:-3:-3 / analyse=0x3:0x113 / me=umh / subme=10 / psy=1 / fade_compensate=0.00 / psy_rd=1.00:0.05 / mixed_ref=1 / me_range=48 / chroma_me=1 / trellis=2 / 8x8dct=1 / cqm=0 / deadzone=21,11 / fast_pskip=0 / chroma_qp_offset=-2 / threads=48 / lookahead_threads=8 / sliced_threads=0 / nr=0 / decimate=1 / interlaced=0 / bluray_compat=0 / constrained_intra=0 / fgo=0 / bframes=8 / b_pyramid=2 / b_adapt=2 / b_bias=0 / direct=3 / weightb=1 / open_gop=0 / weightp=2 / keyint=250 / keyint_min=23 / scenecut=40 / intra_refresh=0 / rc_lookahead=40 / rc=crf / mbtree=0 / crf=17.6000 / qcomp=0.60 / qpmin=0:0:0 / qpmax=69:69:69 / qpstep=4 / vbv_maxrate=40000 / vbv_bufsize=30000 / crf_max=0.0 / nal_hrd=none / filler=0 / ip_ratio=1.40 / pb_ratio=1.30 / aq=3:0.80 / aq-sensitivity=10.00 / aq-factor=1.00:1.00:1.00 / aq2=0 / aq3=0
Language : Japanese
Default : Yes
Forced : No
Color range : Limited
Matrix coefficients : BT.709

Audio
ID : 2
Format : DTS
Format/Info : Digital Theater Systems
Codec ID : A_DTS
Duration : 2 h 6 min
Bit rate mode : Constant
Bit rate : 1 509 kb/s
Channel(s) : 6 channels
Channel layout : C L R Ls Rs LFE
Sampling rate : 48.0 kHz
Frame rate : 93.750 FPS (512 SPF)
Bit depth : 24 bits
Compression mode : Lossy
Stream size : 1.33 GiB (9%)
Language : Japanese
Default : Yes
Forced : No

Text
ID : 3
Format : UTF-8
Codec ID : S_TEXT/UTF8
Codec ID/Info : UTF-8 Plain Text
Duration : 1 h 56 min
Bit rate : 37 b/s
Count of elements : 1232
Stream size : 31.8 KiB (0%)
Language : English
Default : Yes
Forced : No

Menu
00:00:00.000 : :00:00:00.000
00:10:17.951 : :00:10:17.951
00:22:53.664 : :00:22:53.664
00:29:50.789 : :00:29:50.789
00:35:41.139 : :00:35:41.139
00:48:03.881 : :00:48:03.881
00:55:42.756 : :00:55:42.756
01:08:14.090 : :01:08:14.090
01:16:08.564 : :01:16:08.564
01:28:49.324 : :01:28:49.324
01:38:37.912 : :01:38:37.912
01:51:33.687 : :01:51:33.687

5d3dfbac0eb7a.png 5d3dfbace0064.png 5d3dfbadc4cc8.png

Like.Father.Like.Son.2013.JAPANESE.1080p.BluRay.x264.DTS-HDH.torrent

75.33 KB, 下载次数: 3


【扫码访问手机版】

温馨提示

记得善用社区搜索功能,那里可能会有你想要的资源;论坛站内搜索

如果你有什么需要的资源可以去资源求档发帖,求助社区的网友,我们会在第一时间给你回复哦;资源求档

对于本社区如果你有任何好建议或者相关合作可以随时与我们联系,或者在投诉建议发帖,您的支持,是我们发展的最大动力;投诉建议

精彩评论33

梵以姑娘i 发表于 2019-7-29 15:49 | 显示全部楼层
666,这个可以支持!

温馨提示

记得善用社区搜索功能,那里可能会有你想要的资源;论坛站内搜索

如果你有什么需要的资源可以去资源求档发帖,求助社区的网友,我们会在第一时间给你回复哦;资源求档

对于本社区如果你有任何好建议或者相关合作可以随时与我们联系,或者在投诉建议发帖,您的支持,是我们发展的最大动力;投诉建议

◆沧桑 发表于 2019-7-30 01:51 | 显示全部楼层
感谢你的分享,论坛有你更加的精彩

温馨提示

记得善用社区搜索功能,那里可能会有你想要的资源;论坛站内搜索

如果你有什么需要的资源可以去资源求档发帖,求助社区的网友,我们会在第一时间给你回复哦;资源求档

对于本社区如果你有任何好建议或者相关合作可以随时与我们联系,或者在投诉建议发帖,您的支持,是我们发展的最大动力;投诉建议

伴凯终老 发表于 2019-7-30 10:51 来自手机 | 显示全部楼层
资源可用!谢谢分享!

温馨提示

记得善用社区搜索功能,那里可能会有你想要的资源;论坛站内搜索

如果你有什么需要的资源可以去资源求档发帖,求助社区的网友,我们会在第一时间给你回复哦;资源求档

对于本社区如果你有任何好建议或者相关合作可以随时与我们联系,或者在投诉建议发帖,您的支持,是我们发展的最大动力;投诉建议

相许 发表于 2019-7-30 19:00 | 显示全部楼层
感谢分享

温馨提示

记得善用社区搜索功能,那里可能会有你想要的资源;论坛站内搜索

如果你有什么需要的资源可以去资源求档发帖,求助社区的网友,我们会在第一时间给你回复哦;资源求档

对于本社区如果你有任何好建议或者相关合作可以随时与我们联系,或者在投诉建议发帖,您的支持,是我们发展的最大动力;投诉建议

花龄残伤丶 发表于 2019-7-31 02:36 | 显示全部楼层
金币不够了回复有金币吗

温馨提示

记得善用社区搜索功能,那里可能会有你想要的资源;论坛站内搜索

如果你有什么需要的资源可以去资源求档发帖,求助社区的网友,我们会在第一时间给你回复哦;资源求档

对于本社区如果你有任何好建议或者相关合作可以随时与我们联系,或者在投诉建议发帖,您的支持,是我们发展的最大动力;投诉建议

朱砂印 发表于 2019-7-31 10:35 | 显示全部楼层
前排支持 感谢分享

温馨提示

记得善用社区搜索功能,那里可能会有你想要的资源;论坛站内搜索

如果你有什么需要的资源可以去资源求档发帖,求助社区的网友,我们会在第一时间给你回复哦;资源求档

对于本社区如果你有任何好建议或者相关合作可以随时与我们联系,或者在投诉建议发帖,您的支持,是我们发展的最大动力;投诉建议

兔斯基小姐ッ 发表于 2019-8-1 07:09 来自手机 | 显示全部楼层
好资源终于找到了<<如父如子 Like.Father.Like.Son.2013.JAPANESE.1080p.BluRay.x264.DTS-HDH 14....>>

温馨提示

记得善用社区搜索功能,那里可能会有你想要的资源;论坛站内搜索

如果你有什么需要的资源可以去资源求档发帖,求助社区的网友,我们会在第一时间给你回复哦;资源求档

对于本社区如果你有任何好建议或者相关合作可以随时与我们联系,或者在投诉建议发帖,您的支持,是我们发展的最大动力;投诉建议

烟花易冷红颜薄 发表于 2019-8-1 17:49 来自手机 | 显示全部楼层
<<如父如子 Like.Father.Like.Son.2013.JAPANESE.1080p.BluRay.x264.DTS-HDH 14....>>

温馨提示

记得善用社区搜索功能,那里可能会有你想要的资源;论坛站内搜索

如果你有什么需要的资源可以去资源求档发帖,求助社区的网友,我们会在第一时间给你回复哦;资源求档

对于本社区如果你有任何好建议或者相关合作可以随时与我们联系,或者在投诉建议发帖,您的支持,是我们发展的最大动力;投诉建议

情胃 发表于 2019-8-2 04:11 来自手机 | 显示全部楼层
资源可用!谢谢分享!

温馨提示

记得善用社区搜索功能,那里可能会有你想要的资源;论坛站内搜索

如果你有什么需要的资源可以去资源求档发帖,求助社区的网友,我们会在第一时间给你回复哦;资源求档

对于本社区如果你有任何好建议或者相关合作可以随时与我们联系,或者在投诉建议发帖,您的支持,是我们发展的最大动力;投诉建议

您需要登录后才可以回帖 登录 | 注册会员[Register]  

本版积分规则

发布主题
阅读排行更多+
快速回复 收藏帖子 返回列表
注册会员,尊享海量资源免费资源。 会员登录[Login] 注册[Register]
资源分享,资源共享。
官方Twitter
Twitter.com/8ziyuan
意见反馈:[email protected]

关注我们的官方Twitter

Powered by Discuz! © 2016-2019 8ziyuan.com Inc. Protected by CloudFlare | 小黑屋 | 8资源分享论坛 | RSS订阅 | 手机版 | 联系我们