请选择 进入手机版 | 继续访问电脑版

[动作片] 白髮魔女2 The.Bride.with.White.Hair.2.1993.CHINESE.1080p.BluRay.x264.DD5....

[复制链接]
唐章小小官方 发表于 2019-12-8 22:30 | 显示全部楼层 |阅读模式 打印 上一主题 下一主题
c40022c37252f.png

◎译  名 白发魔女2 / The Bride with White Hair 2 / 白发魔女传2
◎片  名 白髮魔女2
◎年  代 1993
◎产  地 中国香港
◎类  别 动作 / 爱情 / 奇幻
◎语  言 粤语
◎上映日期 1993-12-22(中国香港)
◎IMDb评分 6.0/10 from 914 users
◎IMDb链接 https://www.imdb.com/title/tt0106343
◎豆瓣评分 6.6/10 from 15197 users
◎豆瓣链接 https://movie.douban.com/subject/1294564/
◎片  长 80 分钟
◎导  演 胡大为 David Wu
◎编  剧 杜国威 Raymond To / 于仁泰 Ronny Yu / 胡大为 David Wu
◎主  演 林青霞 Brigitte Lin
      陈锦鸿 Sunny Chan
      钟丽缇 Christy Chung
      万绮雯 Yee-Man Man
      张国荣 Leslie Cheung
      钟淑慧 Lily Chung
      孙国豪 Richard Sun
      李香琴 Heung Kam Lee
      罗兰 Lan Law
      陶君薇 Ruth Winona Tao


◎标  签 张国荣 | 林青霞 | 香港 | 武侠 | 香港电影 | 爱情 | 动作 | 古装

◎简  介

  自从邪教魔女练霓裳(林青霞饰)与武当首徒卓一航(张国荣饰)分道扬镳之后,从此销声匿迹。但数年之后魔女却已走火入魔,建立魔宫,并练得天下无敌奇功,四处杀戮正派人士。卓却独自呆守于雪峰顶,待奇花盛开之日再觅爱人芳踪,让昔日爱人重生黑发。
  适逢武当后人封俊杰(陈锦鸿饰)迎娶点苍派玉女虞琴(万绮雯饰)之夜,魔女再现,杀宾客掳新娘,杰为救虞琴不幸身负重伤。武当派除杰与小师弟绿痕之外,亦无人幸免。
  杰与绿痕遂联合各派小侠,准备向魔女的魔宫进攻,营救爱妻,誓杀魔女。
Video
ID : 1
Format : AVC
Format/Info : Advanced Video Codec
Format profile : [email protected]
Format settings : CABAC / 4 Ref Frames
Format settings, CABAC : Yes
Format settings, Reference frames : 4 frames
Codec ID : V_MPEG4/ISO/AVC
Duration : 1 h 20 min
Bit rate : 12.6 Mb/s
Width : 1 920 pixels
Height : 1 080 pixels
Display aspect ratio : 16:9
Frame rate mode : Constant
Frame rate : 24.000 FPS
Color space : YUV
Chroma subsampling : 4:2:0
Bit depth : 8 bits
Scan type : Progressive
Bits/(Pixel*Frame) : 0.254
Stream size : 7.10 GiB (95%)
Writing library : x264 core 148 r2692+46 0f71ed5 7mod [8-bit@all X86_64]
Encoding settings : cabac=1 / ref=4 / deblock=1:-3:-3 / analyse=0x3:0x113 / me=umh / subme=11 / psy=1 / fade_compensate=0.00 / psy_rd=1.00:0.00 / mixed_ref=1 / me_range=48 / chroma_me=1 / trellis=2 / 8x8dct=1 / cqm=0 / deadzone=11,6 / fast_pskip=0 / chroma_qp_offset=-2 / threads=12 / lookahead_threads=2 / sliced_threads=0 / nr=0 / decimate=0 / interlaced=0 / bluray_compat=0 / constrained_intra=0 / fgo=0 / bframes=8 / b_pyramid=2 / b_adapt=2 / b_bias=0 / direct=3 / weightb=1 / open_gop=0 / weightp=2 / keyint=250 / keyint_min=24 / scenecut=40 / intra_refresh=0 / rc_lookahead=60 / rc=crf / mbtree=0 / crf=19.5000 / qcomp=0.60 / qpmin=0:0:0 / qpmax=32:32:32 / qpstep=4 / vbv_maxrate=40000 / vbv_bufsize=30000 / crf_max=0.0 / nal_hrd=none / filler=0 / ip_ratio=1.30 / pb_ratio=1.20 / aq=3:0.80 / aq-sensitivity=10.00 / aq-factor=1.00:1.00:1.00 / aq2=0 / aq3=0
Default : Yes
Forced : No
Color range : Limited
Color primaries : BT.709
Transfer characteristics : BT.709
Matrix coefficients : BT.709

Audio
ID : 2
Format : AC-3
Format/Info : Audio Coding 3
Commercial name : Dolby Digital
Codec ID : A_AC3
Duration : 1 h 20 min
Bit rate mode : Constant
Bit rate : 640 kb/s
Channel(s) : 6 channels
Channel layout : L R C LFE Ls Rs
Sampling rate : 48.0 kHz
Frame rate : 31.250 FPS (1536 SPF)
Bit depth : 16 bits
Compression mode : Lossy
Stream size : 369 MiB (5%)
Title : Cantonese
Language : Chinese
Service kind : Complete Main
Default : Yes
Forced : No

Text
ID : 3
Format : UTF-8
Codec ID : S_TEXT/UTF8
Codec ID/Info : UTF-8 Plain Text
Duration : 1 h 16 min
Bit rate : 33 b/s
Count of elements : 695
Stream size : 18.5 KiB (0%)
Language : English
Default : Yes
Forced : No

Menu
00:00:00.000 : en:Chapter 01
00:05:59.750 : en:Chapter 02
00:11:37.458 : en:Chapter 03
00:17:28.250 : en:Chapter 04
00:25:01.333 : en:Chapter 05
00:32:51.375 : en:Chapter 06
00:39:53.750 : en:Chapter 07
00:46:16.667 : en:Chapter 08
00:52:55.042 : en:Chapter 09
01:01:47.375 : en:Chapter 10
01:08:33.000 : en:Chapter 11
01:14:53.583 : en:Chapter 12

6f44c28782100.png 79fa4a12abd8d.png 15aa2a39933b3.png

The.Bride.with.White.Hair.2.1993.CHINESE.1080p.BluRay.x264.DD5.1-PbK.torrent

37.86 KB, 下载次数: 11


【扫码访问手机版】

温馨提示

记得善用社区搜索功能,那里可能会有你想要的资源;论坛站内搜索

如果你有什么需要的资源可以去资源求档发帖,求助社区的网友,我们会在第一时间给你回复哦;资源求档

对于本社区如果你有任何好建议或者相关合作可以随时与我们联系,或者在投诉建议发帖,您的支持,是我们发展的最大动力;投诉建议

精彩评论3

只剩淡漠 发表于 2019-12-8 22:37 | 显示全部楼层
十分感谢

温馨提示

记得善用社区搜索功能,那里可能会有你想要的资源;论坛站内搜索

如果你有什么需要的资源可以去资源求档发帖,求助社区的网友,我们会在第一时间给你回复哦;资源求档

对于本社区如果你有任何好建议或者相关合作可以随时与我们联系,或者在投诉建议发帖,您的支持,是我们发展的最大动力;投诉建议

冒牌货 发表于 2019-12-14 15:03 来自手机 | 显示全部楼层
感谢分享啊

温馨提示

记得善用社区搜索功能,那里可能会有你想要的资源;论坛站内搜索

如果你有什么需要的资源可以去资源求档发帖,求助社区的网友,我们会在第一时间给你回复哦;资源求档

对于本社区如果你有任何好建议或者相关合作可以随时与我们联系,或者在投诉建议发帖,您的支持,是我们发展的最大动力;投诉建议

娇滴滴的女汉子@ 发表于 2019-12-27 11:19 来自手机 | 显示全部楼层
感谢分享啊

温馨提示

记得善用社区搜索功能,那里可能会有你想要的资源;论坛站内搜索

如果你有什么需要的资源可以去资源求档发帖,求助社区的网友,我们会在第一时间给你回复哦;资源求档

对于本社区如果你有任何好建议或者相关合作可以随时与我们联系,或者在投诉建议发帖,您的支持,是我们发展的最大动力;投诉建议

您需要登录后才可以回帖 登录 | 注册会员[Register]  

本版积分规则

发布主题
阅读排行更多+
快速回复 收藏帖子 返回列表
注册会员,尊享海量免费资源。 会员登录[Login] 注册[Register]
资源分享,资源共享。
官方Twitter
Twitter.com/8ziyuan
意见反馈:[email protected]

关注我们的官方Twitter

Powered by Discuz! © 2016-2019 8ziyuan.com Inc. Protected by CloudFlare | 小黑屋 | 8资源分享论坛 | RSS订阅 | 手机版 | 联系我们