[动作] 白髮魔女傳 The.Bride.with.White.Hair.1993.CHINESE.1080p.BluRay.x264.DD5....

[复制链接]
唐章小小官方认证 发表于 2019-12-8 22:31 | 显示全部楼层 |阅读模式 打印 上一主题 下一主题
3cc1049683a12.png

◎译  名 白发魔女传 / The Bride with White Hair / 狼女
◎片  名 白髮魔女傳
◎年  代 1993
◎产  地 中国香港
◎类  别 动作 / 爱情 / 奇幻 / 冒险 / 武侠 / 古装
◎语  言 粤语
◎上映日期 1993-08-26(中国香港)
◎IMDb评分 6.9/10 from 3039 users
◎IMDb链接 https://www.imdb.com/title/tt0106342
◎豆瓣评分 7.7/10 from 56702 users
◎豆瓣链接 https://movie.douban.com/subject/1293765/
◎片  长 89分钟
◎导  演 于仁泰 Ronny Yu
◎编  剧 胡大为 David Wu / 于仁泰 Ronny Yu / 邓碧燕 Elsa Tang / 林纪陶 Kee-To Lam / 梁羽生 Yusheng Liang
◎主  演 张国荣 Leslie Cheung
      林青霞 Brigitte Lin
      吴镇宇 Francis Ng
      吕少玲 Elaine Lui
      蓝洁瑛 Kit Ying Lam
      罗乐林 Lok Lam Law
      鲍方 Fong Pau
      高雄 Eddy Ko


◎标  签 香港 | 武侠 | 爱情 | 动作 | 经典 | 古装 | 1993 | 中国

◎简  介

  明末年间,中原与金国边境战火硝烟四起,姬无双(吴镇宇 饰)的魔教大行肆虐。朝廷与武林联合抗敌。武当派首徒卓一航(张国荣 饰)自幼桀骜不驯,但天资过人,极受掌门紫阳真人看重。卓一航幼年奇遇不断,先后结识了当时还只是武官的吴三桂(高雄 饰)与神秘的狼女(林青霞 饰)。成年后的卓一航为人正直,但浪子本性不改,不愿受礼教束缚,仗义行侠却屡屡受指。大师姐(蓝洁瑛 饰)对其倾心,卓一航却毫不动心。再次偶遇狼女,卓一航心生爱意,狼女亦为之倾心。然后正邪不两立,有情人面对诸般艰难险阻,终是黯然收场……

◎获奖情况

  第30届台北金马影展(1993)
  金马奖 最佳改编剧本 邓碧燕 / 林纪陶 / 胡大为 / 于仁泰
  金马奖 最佳摄影(提名) 鲍德熹
  金马奖 最佳美术设计(提名) 马磐超
  金马奖 最佳原创歌曲

  第13届香港电影金像奖(1994)
  最佳摄影 鲍德熹
  最佳剪接(提名) 胡大为
  最佳美术指导 马磐超
  最佳服装造型设计 张新耀 / 和田惠美
  最佳原创电影音乐(提名) 袁卓凡
  最佳原创电影歌曲(提名) 张国荣
Video
ID : 1
Format : AVC
Format/Info : Advanced Video Codec
Format profile : [email protected]
Format settings : CABAC / 5 Ref Frames
Format settings, CABAC : Yes
Format settings, Reference frames : 5 frames
Codec ID : V_MPEG4/ISO/AVC
Duration : 1 h 29 min
Bit rate : 15.5 Mb/s
Width : 1 920 pixels
Height : 808 pixels
Display aspect ratio : 2.40:1
Frame rate mode : Constant
Frame rate : 24.000 FPS
Color space : YUV
Chroma subsampling : 4:2:0
Bit depth : 8 bits
Scan type : Progressive
Bits/(Pixel*Frame) : 0.415
Stream size : 9.61 GiB (96%)
Writing library : x264 core 148 r2692+46 0f71ed5 7mod [8-bit@all X86_64]
Encoding settings : cabac=1 / ref=5 / deblock=1:-3:-3 / analyse=0x3:0x113 / me=umh / subme=11 / psy=1 / fade_compensate=0.00 / psy_rd=1.00:0.00 / mixed_ref=1 / me_range=48 / chroma_me=1 / trellis=2 / 8x8dct=1 / cqm=0 / deadzone=11,6 / fast_pskip=0 / chroma_qp_offset=-2 / threads=12 / lookahead_threads=2 / sliced_threads=0 / nr=0 / decimate=0 / interlaced=0 / bluray_compat=0 / constrained_intra=0 / fgo=0 / bframes=8 / b_pyramid=2 / b_adapt=2 / b_bias=0 / direct=3 / weightb=1 / open_gop=0 / weightp=2 / keyint=250 / keyint_min=24 / scenecut=40 / intra_refresh=0 / rc_lookahead=60 / rc=crf / mbtree=0 / crf=19.5000 / qcomp=0.60 / qpmin=0:0:0 / qpmax=32:32:32 / qpstep=4 / vbv_maxrate=40000 / vbv_bufsize=30000 / crf_max=0.0 / nal_hrd=none / filler=0 / ip_ratio=1.30 / pb_ratio=1.20 / aq=3:0.80 / aq-sensitivity=10.00 / aq-factor=1.00:1.00:1.00 / aq2=0 / aq3=0
Default : Yes
Forced : No
Color range : Limited
Color primaries : BT.709
Transfer characteristics : BT.709
Matrix coefficients : BT.709

Audio
ID : 2
Format : AC-3
Format/Info : Audio Coding 3
Commercial name : Dolby Digital
Codec ID : A_AC3
Duration : 1 h 29 min
Bit rate mode : Constant
Bit rate : 640 kb/s
Channel(s) : 6 channels
Channel layout : L R C LFE Ls Rs
Sampling rate : 48.0 kHz
Frame rate : 31.250 FPS (1536 SPF)
Bit depth : 16 bits
Compression mode : Lossy
Stream size : 408 MiB (4%)
Title : Cantonese
Language : Chinese
Service kind : Complete Main
Default : Yes
Forced : No

Text
ID : 3
Format : UTF-8
Codec ID : S_TEXT/UTF8
Codec ID/Info : UTF-8 Plain Text
Duration : 1 h 23 min
Bit rate : 33 b/s
Count of elements : 748
Stream size : 20.4 KiB (0%)
Language : English
Default : Yes
Forced : No

Menu
00:00:00.000 : en:Chapter 01
00:08:08.958 : en:Chapter 02
00:15:28.750 : en:Chapter 03
00:21:15.583 : en:Chapter 04
00:29:08.750 : en:Chapter 05
00:39:07.792 : en:Chapter 06
00:48:52.833 : en:Chapter 07
00:57:26.375 : en:Chapter 08
01:03:14.875 : en:Chapter 09
01:11:06.083 : en:Chapter 10
01:18:09.542 : en:Chapter 11
01:25:18.542 : en:Chapter 12

509576a7d5188.png b42a61180088c.png 09fe3becefcdb.png

The.Bride.with.White.Hair.1993.CHINESE.1080p.BluRay.x264.DD5.1-PbK.torrent

50.63 KB, 下载次数: 25, 下载积分: 金币 -1

温馨提示

记得善用社区搜索功能,那里可能会有你想要的资源;论坛站内搜索

如果你有什么需要的资源可以去资源求档发帖,求助社区的网友,我们会在第一时间给你回复哦;资源求档

对于本社区如果你有任何好建议或者相关合作可以随时与我们联系,或者在投诉建议发帖,您的支持,是我们发展的最大动力;投诉建议

精彩评论7

酱汁儿肉 发表于 2019-12-8 22:41 | 显示全部楼层
太赞了!!!LZ!!!!

温馨提示

记得善用社区搜索功能,那里可能会有你想要的资源;论坛站内搜索

如果你有什么需要的资源可以去资源求档发帖,求助社区的网友,我们会在第一时间给你回复哦;资源求档

对于本社区如果你有任何好建议或者相关合作可以随时与我们联系,或者在投诉建议发帖,您的支持,是我们发展的最大动力;投诉建议

oぃ輸在喜欢妳 发表于 2019-12-9 06:10 来自手机 | 显示全部楼层
金币不够了回复有金币吗

温馨提示

记得善用社区搜索功能,那里可能会有你想要的资源;论坛站内搜索

如果你有什么需要的资源可以去资源求档发帖,求助社区的网友,我们会在第一时间给你回复哦;资源求档

对于本社区如果你有任何好建议或者相关合作可以随时与我们联系,或者在投诉建议发帖,您的支持,是我们发展的最大动力;投诉建议

我瞎不见光i 发表于 2019-12-16 00:30 来自手机 | 显示全部楼层
前排支持 感谢分享

温馨提示

记得善用社区搜索功能,那里可能会有你想要的资源;论坛站内搜索

如果你有什么需要的资源可以去资源求档发帖,求助社区的网友,我们会在第一时间给你回复哦;资源求档

对于本社区如果你有任何好建议或者相关合作可以随时与我们联系,或者在投诉建议发帖,您的支持,是我们发展的最大动力;投诉建议

错乱的人生 发表于 2019-12-22 00:12 来自手机 | 显示全部楼层
谢谢楼主分享

温馨提示

记得善用社区搜索功能,那里可能会有你想要的资源;论坛站内搜索

如果你有什么需要的资源可以去资源求档发帖,求助社区的网友,我们会在第一时间给你回复哦;资源求档

对于本社区如果你有任何好建议或者相关合作可以随时与我们联系,或者在投诉建议发帖,您的支持,是我们发展的最大动力;投诉建议

温入骨 发表于 2019-12-28 15:30 来自手机 | 显示全部楼层
找了好久终于找到了

温馨提示

记得善用社区搜索功能,那里可能会有你想要的资源;论坛站内搜索

如果你有什么需要的资源可以去资源求档发帖,求助社区的网友,我们会在第一时间给你回复哦;资源求档

对于本社区如果你有任何好建议或者相关合作可以随时与我们联系,或者在投诉建议发帖,您的支持,是我们发展的最大动力;投诉建议

at604771785 发表于 2020-5-17 21:21 | 显示全部楼层
看看,谢谢!!!!!!!!!!!!!!!!!

温馨提示

记得善用社区搜索功能,那里可能会有你想要的资源;论坛站内搜索

如果你有什么需要的资源可以去资源求档发帖,求助社区的网友,我们会在第一时间给你回复哦;资源求档

对于本社区如果你有任何好建议或者相关合作可以随时与我们联系,或者在投诉建议发帖,您的支持,是我们发展的最大动力;投诉建议

本版积分规则
提醒:禁止复制他人回复等『恶意灌水』行为,违者重罚!

发布主题
阅读排行更多+
快速回复 收藏帖子 返回列表
资源分享,资源共享。
官方Facebok
Facebook.com/8ziyuan
意见反馈:[email protected]

关注我们的官方Twitter

Powered by Discuz! © 2016-2020 8ziyuan.com Inc. Protected by CloudFlare | 小黑屋 | 8资源分享论坛 | RSS订阅 | 手机版 | 联系我们