请选择 进入手机版 | 继续访问电脑版

[动作片] 上海灘十三太保 Shanghai.13.1984.CHINESE.1080p.BluRay.x264.DTS-FGT 7.89GB

[复制链接]
唐章小小官方 发表于 2019-12-26 20:36 | 显示全部楼层 |阅读模式 打印 上一主题 下一主题


◎译  名 上海滩十三太保 / All the Professionals / Shanghai 13 / The Shanghai Thirteen
◎片  名 上海灘十三太保
◎年  代 1984
◎产  地 中国台湾
◎类  别 动作
◎语  言 汉语普通话
◎上映日期 1984-03-02(中国台湾)
◎IMDb评分 6.5/10 from 122 users
◎IMDb链接 https://www.imdb.com/title/tt0083061
◎豆瓣评分 7.5/10 from 3410 users
◎豆瓣链接 https://movie.douban.com/subject/1466574/
◎片  长 90 分钟
◎导  演 张彻 Cheh Chang
◎编  剧 张彻 Cheh Chang
◎主  演 狄龙 Lung Ti
      姜大卫 David Chiang
      梁家仁 Ka-Yan Leung
      王羽 Yu Wang
      李修贤 Danny Lee
      刘德华 Andy Lau
      陈观泰 Kuan Tai Chen
      朱海玲 Hailin Zhu


◎标  签 张彻 | 香港 | 动作 | 邵氏 | 香港电影 | 姜大卫 | 狄龙 | 刘德华

◎简  介

  抗日时期,爱国人士高先生不满汪伪政权卖国行径,与神偷黑帽子(王羽 饰)将双方密约窃走,计划将其公开。上海富商沈刚夫(陈观泰 饰)受人所托,命上海滩十三太保保护高先生离沪赴港。南京方面内务部长官洪述亦同时动作,收买部分太保暗杀高先生……
  长枪小杨(李修贤 饰)首先发难行刺却因失手被洪述清除,高先生先后在烟嘴冯金榜(江生 饰)、眼镜(王钟 饰)、富商陶大业(梁家仁 饰)、学生关伟(刘德华 饰)、浪子叶不凡(姜大卫 饰)、少爷梁少雄、教头(狄龙)的护卫下历经连番血战,终于杀出重围。只可叹“教头快刀、浪子富翁、学生少爷、熊虎鹰豹、眼镜烟嘴、长枪难逃”的上海滩十三太保一朝风流云散。
Video
ID : 1
Format : AVC
Format/Info : Advanced Video Codec
Format profile : [email protected]
Format settings : CABAC / 4 Ref Frames
Format settings, CABAC : Yes
Format settings, Reference frames : 4 frames
Codec ID : V_MPEG4/ISO/AVC
Duration : 1 h 26 min
Bit rate : 11.5 Mb/s
Width : 1 920 pixels
Height : 816 pixels
Display aspect ratio : 2.35:1
Frame rate mode : Constant
Frame rate : 25.000 FPS
Color space : YUV
Chroma subsampling : 4:2:0
Bit depth : 8 bits
Scan type : Progressive
Bits/(Pixel*Frame) : 0.294
Stream size : 6.97 GiB (88%)
Title : Shanghai.13.1984.CHINESE.1080p.BluRay.x264.DTS-FGT
Writing library : x264 core 148 r2748 97eaef2
Encoding settings : cabac=1 / ref=4 / deblock=1:-2:-2 / analyse=0x3:0x113 / me=umh / subme=9 / psy=1 / psy_rd=1.00:0.15 / mixed_ref=1 / me_range=16 / chroma_me=1 / trellis=2 / 8x8dct=1 / cqm=0 / deadzone=21,11 / fast_pskip=1 / chroma_qp_offset=-3 / threads=24 / lookahead_threads=3 / sliced_threads=0 / nr=0 / decimate=1 / interlaced=0 / bluray_compat=0 / constrained_intra=0 / bframes=3 / b_pyramid=2 / b_adapt=1 / b_bias=0 / direct=3 / weightb=1 / open_gop=0 / weightp=2 / keyint=250 / keyint_min=25 / scenecut=40 / intra_refresh=0 / rc_lookahead=50 / rc=2pass / mbtree=1 / bitrate=11500 / ratetol=1.0 / qcomp=0.60 / qpmin=0 / qpmax=69 / qpstep=4 / cplxblur=20.0 / qblur=0.5 / vbv_maxrate=31250 / vbv_bufsize=31250 / nal_hrd=none / filler=0 / ip_ratio=1.40 / aq=1:1.00
Language : Chinese
Default : Yes
Forced : No

Audio
ID : 2
Format : DTS
Format/Info : Digital Theater Systems
Codec ID : A_DTS
Duration : 1 h 26 min
Bit rate mode : Constant
Bit rate : 1 509 kb/s
Channel(s) : 2 channels
Channel layout : L R
Sampling rate : 48.0 kHz
Frame rate : 93.750 FPS (512 SPF)
Bit depth : 16 bits
Compression mode : Lossy
Stream size : 937 MiB (12%)
Title : Shanghai.13.1984.CHINESE.1080p.BluRay.x264.DTS-FGT
Language : Chinese
Default : Yes
Forced : No

Text
ID : 3
Format : UTF-8
Codec ID : S_TEXT/UTF8
Codec ID/Info : UTF-8 Plain Text
Duration : 1 h 22 min
Bit rate : 28 b/s
Count of elements : 630
Stream size : 17.3 KiB (0%)
Language : English
Default : Yes
Forced : No

Menu
00:00:00.000 : en:Chapter 01
00:06:38.240 : en:Chapter 02
00:13:36.680 : en:Chapter 03
00:19:46.480 : en:Chapter 04
00:29:58.880 : en:Chapter 05
00:35:31.760 : en:Chapter 06
00:43:30.480 : en:Chapter 07
00:50:24.640 : en:Chapter 08
00:57:13.480 : en:Chapter 09
01:07:11.000 : en:Chapter 10
01:12:39.280 : en:Chapter 11
01:19:38.200 : en:Chapter 12


Shanghai.13.1984.CHINESE.1080p.BluRay.x264.DTS-FGT.torrent

39.97 KB, 下载次数: 13


【扫码访问手机版】

温馨提示

记得善用社区搜索功能,那里可能会有你想要的资源;论坛站内搜索

如果你有什么需要的资源可以去资源求档发帖,求助社区的网友,我们会在第一时间给你回复哦;资源求档

对于本社区如果你有任何好建议或者相关合作可以随时与我们联系,或者在投诉建议发帖,您的支持,是我们发展的最大动力;投诉建议

精彩评论7

脆弱让人放纵 发表于 2019-12-26 20:45 来自手机 | 显示全部楼层
谢谢楼主分享

温馨提示

记得善用社区搜索功能,那里可能会有你想要的资源;论坛站内搜索

如果你有什么需要的资源可以去资源求档发帖,求助社区的网友,我们会在第一时间给你回复哦;资源求档

对于本社区如果你有任何好建议或者相关合作可以随时与我们联系,或者在投诉建议发帖,您的支持,是我们发展的最大动力;投诉建议

烟花易冷红颜薄 发表于 2019-12-28 22:56 来自手机 | 显示全部楼层
感谢分享

温馨提示

记得善用社区搜索功能,那里可能会有你想要的资源;论坛站内搜索

如果你有什么需要的资源可以去资源求档发帖,求助社区的网友,我们会在第一时间给你回复哦;资源求档

对于本社区如果你有任何好建议或者相关合作可以随时与我们联系,或者在投诉建议发帖,您的支持,是我们发展的最大动力;投诉建议

酱汁儿肉 发表于 2019-12-30 00:26 来自手机 | 显示全部楼层
感谢你的分享,论坛有你更加的精彩

温馨提示

记得善用社区搜索功能,那里可能会有你想要的资源;论坛站内搜索

如果你有什么需要的资源可以去资源求档发帖,求助社区的网友,我们会在第一时间给你回复哦;资源求档

对于本社区如果你有任何好建议或者相关合作可以随时与我们联系,或者在投诉建议发帖,您的支持,是我们发展的最大动力;投诉建议

花龄残伤丶 发表于 2020-1-1 02:01 来自手机 | 显示全部楼层
金币不够了回复有金币吗

温馨提示

记得善用社区搜索功能,那里可能会有你想要的资源;论坛站内搜索

如果你有什么需要的资源可以去资源求档发帖,求助社区的网友,我们会在第一时间给你回复哦;资源求档

对于本社区如果你有任何好建议或者相关合作可以随时与我们联系,或者在投诉建议发帖,您的支持,是我们发展的最大动力;投诉建议

︹yι能量尐女︴ 发表于 2020-1-6 15:29 来自手机 | 显示全部楼层
金币不够了回复有金币吗

温馨提示

记得善用社区搜索功能,那里可能会有你想要的资源;论坛站内搜索

如果你有什么需要的资源可以去资源求档发帖,求助社区的网友,我们会在第一时间给你回复哦;资源求档

对于本社区如果你有任何好建议或者相关合作可以随时与我们联系,或者在投诉建议发帖,您的支持,是我们发展的最大动力;投诉建议

夜、别说爱 发表于 2020-1-12 10:23 来自手机 | 显示全部楼层
资源可用!谢谢分享!

温馨提示

记得善用社区搜索功能,那里可能会有你想要的资源;论坛站内搜索

如果你有什么需要的资源可以去资源求档发帖,求助社区的网友,我们会在第一时间给你回复哦;资源求档

对于本社区如果你有任何好建议或者相关合作可以随时与我们联系,或者在投诉建议发帖,您的支持,是我们发展的最大动力;投诉建议

错乱的人生 发表于 2020-1-14 22:49 来自手机 | 显示全部楼层
强烈感谢

温馨提示

记得善用社区搜索功能,那里可能会有你想要的资源;论坛站内搜索

如果你有什么需要的资源可以去资源求档发帖,求助社区的网友,我们会在第一时间给你回复哦;资源求档

对于本社区如果你有任何好建议或者相关合作可以随时与我们联系,或者在投诉建议发帖,您的支持,是我们发展的最大动力;投诉建议

您需要登录后才可以回帖 登录 | 注册会员[Register]  

本版积分规则

发布主题
阅读排行更多+
快速回复 收藏帖子 返回列表
注册会员,尊享海量免费资源。 会员登录[Login] 注册[Register]
资源分享,资源共享。
官方Twitter
Twitter.com/8ziyuan
意见反馈:[email protected]

关注我们的官方Twitter

Powered by Discuz! © 2016-2019 8ziyuan.com Inc. Protected by CloudFlare | 小黑屋 | 8资源分享论坛 | RSS订阅 | 手机版 | 联系我们